Advertise here

Manchester frente al mar (2016) 1080p Latino

1.376 vistas
1 estrella2 estrellas3 estrellas4 estrellas5 estrellas (1 votos, promedio: 5,00 de 5)
Cargando…

Información de Manchester frente al mar (2016) 1080p Latino

Manchester frente al mar 1080p latino megahd

Datos de la película

  • Calidad: 1080p
  • Audio: Español Latino AC3 5.1 DVD - Ingles AC3 5.1 BLURAY
  • Subtitulos: Español Latino SRT - Ingles SRT
  • Resolución: 1920x1036p
  • Formato: MKV
  • Codec: H.264
  • Encoder: Dpelis
  • Mediainfo: Clic para Mostrar Datos Ver
  • Manchester.by.the.sea.2016.1080p.latino.mkv
    Format                      : Matroska
    Format version              : Version 4 / Version 2
    File size                   : 4.07 GiB
    Duration                    : 2 h 17 min
    Overall bit rate            : 4 239 kb/s
    Movie name                  : DPeliculasHDMega.ORG
    Encoded date                : UTC 2017-05-07 07:18:05 / UTC 2017-05-07T03:54:39Z
    Writing application         : mkvmerge v10.0.0 ('To Drown In You') 64bit
    Writing library             : libebml v1.3.4 + libmatroska v1.4.5 / Lavf57.7.2

    Video
    ID                          : 1
    Format                      : AVC
    Format/Info                 : Advanced Video Codec
    Format profile              : [email protected]
    Format settings, CABAC      : Yes
    Format settings, ReFrames   : 4 frames
    Codec ID                    : V_MPEG4/ISO/AVC
    Duration                    : 2 h 17 min
    Bit rate                    : 3 500 kb/s
    Width                       : 1 920 pixels
    Height                      : 1 036 pixels
    Display aspect ratio        : 1.85:1
    Frame rate mode             : Constant
    Frame rate                  : 23.976 (24000/1001) FPS
    Color space                 : YUV
    Chroma subsampling          : 4:2:0
    Bit depth                   : 8 bits
    Scan type                   : Progressive
    Bits/(Pixel*Frame)          : 0.073
    Stream size                 : 3.25 GiB (80%)
    Writing library             : x264 core 148 r2708 86b7198
    Encoding settings           : cabac=1 / ref=3 / deblock=1:0:0 / analyse=0x3:0x113 / me=hex / subme=7 / psy=1 / psy_rd=1.00:0.00 / mixed_ref=1 / me_range=16 / chroma_me=1 / trellis=1 / 8x8dct=1 / cqm=0 / deadzone=21,11 / fast_pskip=1 / chroma_qp_offset=-2 / threads=12 / lookahead_threads=2 / sliced_threads=0 / nr=0 / decimate=1 / interlaced=0 / bluray_compat=0 / constrained_intra=0 / bframes=3 / b_pyramid=2 / b_adapt=1 / b_bias=0 / direct=1 / weightb=1 / open_gop=0 / weightp=2 / keyint=240 / keyint_min=24 / scenecut=40 / intra_refresh=0 / rc_lookahead=40 / rc=abr / mbtree=1 / bitrate=3500 / ratetol=1.0 / qcomp=0.60 / qpmin=0 / qpmax=69 / qpstep=4 / vbv_maxrate=62500 / vbv_bufsize=78125 / nal_hrd=none / filler=0 / ip_ratio=1.40 / aq=1:1.00
    Default                     : Yes
    Forced                      : No
    Color range                 : Limited
    Color primaries             : BT.709
    Transfer characteristics    : BT.709
    Matrix coefficients         : BT.709
    Statistics Tags Issue       : mkvmerge v10.0.0 ('To Drown In You') 64bit 2017-05-07 07:18:05 / mkvmerge v10.0.0 ('To Drown In You') 64bit 2017-05-07 07:18:05 / UTC 2017-05-07T03:54:39Z
    FromStats_BitRate           : 3469473
    FromStats_Duration          : 02:17:28.365000000
    FromStats_FrameCount        : 197763
    FromStats_StreamSize        : 3577185681

    Audio #1
    ID                          : 2
    Format                      : AC-3
    Format/Info                 : Audio Coding 3
    Format settings, Endianness : Big
    Codec ID                    : A_AC3
    Duration                    : 2 h 17 min
    Bit rate mode               : Constant
    Bit rate                    : 384 kb/s
    Channel(s)                  : 6 channels
    Channel positions           : Front: L C R, Side: L R, LFE
    Sampling rate               : 48.0 kHz
    Frame rate                  : 31.250 FPS (1536 spf)
    Bit depth                   : 16 bits
    Compression mode            : Lossy
    Delay relative to video     : 14 s 495 ms
    Stream size                 : 378 MiB (9%)
    Language                    : Spanish
    Service kind                : Complete Main
    Default                     : Yes
    Forced                      : No
    Statistics Tags Issue       : mkvmerge v10.0.0 ('To Drown In You') 64bit 2017-05-07 07:18:05 / mkvmerge v10.0.0 ('To Drown In You') 64bit 2017-05-07 07:18:05 / UTC 2017-05-07T03:54:39Z
    FromStats_BitRate           : 384000
    FromStats_Duration          : 02:17:03.936000000
    FromStats_FrameCount        : 256998
    FromStats_StreamSize        : 394748928

    Audio #2
    ID                          : 3
    Format                      : AC-3
    Format/Info                 : Audio Coding 3
    Format settings, Endianness : Big
    Codec ID                    : A_AC3
    Duration                    : 2 h 17 min
    Bit rate mode               : Constant
    Bit rate                    : 384 kb/s
    Channel(s)                  : 6 channels
    Channel positions           : Front: L C R, Side: L R, LFE
    Sampling rate               : 48.0 kHz
    Frame rate                  : 31.250 FPS (1536 spf)
    Bit depth                   : 16 bits
    Compression mode            : Lossy
    Delay relative to video     : -5 ms
    Stream size                 : 378 MiB (9%)
    Title                       : Surround
    Language                    : English
    Service kind                : Complete Main
    Default                     : No
    Forced                      : No
    Statistics Tags Issue       : mkvmerge v10.0.0 ('To Drown In You') 64bit 2017-05-07 07:18:05 / mkvmerge v10.0.0 ('To Drown In You') 64bit 2017-05-07 07:18:05 / UTC 2017-05-07T03:54:39Z
    FromStats_BitRate           : 384000
    FromStats_Duration          : 02:17:28.352000000
    FromStats_FrameCount        : 257761
    FromStats_StreamSize        : 395920896

    Text #1
    ID                          : 4
    Format                      : UTF-8
    Codec ID                    : S_TEXT/UTF8
    Codec ID/Info               : UTF-8 Plain Text
    Default                     : Yes
    Forced                      : No
    Statistics Tags Issue       : mkvmerge v10.0.0 ('To Drown In You') 64bit 2017-05-07 07:18:05 / mkvmerge v10.0.0 ('To Drown In You') 64bit 2017-05-07 07:18:05 / UTC 2017-05-07T03:54:39Z
    FromStats_BitRate           : 57
    FromStats_Duration          : 02:09:35.678000000
    FromStats_FrameCount        : 1714
    FromStats_StreamSize        : 56030

    Text #2
    ID                          : 5
    Format                      : UTF-8
    Codec ID                    : S_TEXT/UTF8
    Codec ID/Info               : UTF-8 Plain Text
    Default                     : No
    Forced                      : No
    Statistics Tags Issue       : mkvmerge v10.0.0 ('To Drown In You') 64bit 2017-05-07 07:18:05 / mkvmerge v10.0.0 ('To Drown In You') 64bit 2017-05-07 07:18:05 / UTC 2017-05-07T03:54:39Z
    FromStats_BitRate           : 62
    FromStats_Duration          : 02:09:36.239000000
    FromStats_FrameCount        : 1756
    FromStats_StreamSize        : 61002

    Menu
    00:00:00.000                : :00:00:00.000
    00:06:57.000                : :00:06:56.958
    00:14:36.459                : :00:14:36.334
    00:19:42.014                : :00:19:41.931
    00:27:35.445                : :00:27:35.320
    00:34:16.054                : :00:34:15.971
    00:41:40.957                : :00:41:40.873
    00:48:19.146                : :00:48:19.063
    00:56:20.335                : :00:56:20.335
    01:04:12.974                : :01:04:12.849
    01:11:53.726                : :01:11:53.601
    01:18:07.766                : :01:18:07.600
    01:24:59.428                : :01:24:59.344
    01:32:32.756                : :01:32:32.672
    01:37:44.817                : :01:37:44.734
    01:44:20.546                : :01:44:20.546
    01:52:21.860                : :01:52:21.818
    01:58:33.315                : :01:58:33.273
    02:07:13.459                : :02:07:13.417
    02:12:37.700                : :02:12:37.658

  • Peso: 4.07GB

Sinopsis

 Manchester frente al agua 1080p Latino tambien conocida como manchester by the sea, Chandler cuenta la historia de una familia de clase trabajadora con sede en Massachusetts. Después de la repentina muerte de Joe (Kyle Chandler), el hermano mayor de Lee (Casey Affleck), se convierte en el tutor legal de su sobrino (Lucas Hedges). De repente, Lee se ve obligado a hacer frente a un pasado trágico que le ha llevado a separarse de su esposa Randi (Michelle Williams) y de la comunidad en la que nació y se crió.

Ficha técnica

  • Titulo original: Manchester by the Sea
  • Fecha de lanzamiento: 18-11-2016 (United States of America)
  • Director: Andrea Ulrich, Kenneth Lonergan
  • Género: Drama
  • Puntuación: 5.0 1 votos
  • Duración:
    2h 17m

Video trailer de la película

Enlaces de descarga

Descargar Manchester frente al mar (2016) 1080p Latino
Descargar

dpeliculas

Aportes de DPeliculasHDmega la pass es:dpeliculashdmega.org Aportes de CinemaniaHD la pass es:cinemaniahdd.com
Guardado en : Drama

Películas relacionadas

  • Your name (2016) Full 1080p Latino

    2016
    Your name (2016) Full 1080p Latino

    5.0 1 h 46 min 2016

    La película nos presenta a dos jóvenes, Mitsuha y Taki. La primera es una estudiante de instituto que...

    Director: Makoto Shinkai

    Género: Animación

    Actores: Tani Kanon

  • Atrápame si puedes (2002) Full 1080p Latino

    2002
    Atrápame si puedes (2002) Full 1080p Latino

    0.0 2h 20m 2002

    Frank Abagnale Jr. trabajó como médico, abogado y copiloto de una de las grandes líneas aéreas, todo...

    Director: Steven Spielberg

    Género: Crimen

    Actores: William Lauzon

  • Mi Nueva Yo (2017) WEBDL 1080p Latino

    2017
    Mi Nueva Yo (2017) WEBDL 1080p Latino

    0.0 1 h 37 min 2017

    Una madre de dos hijos se acaba de separar y decide iniciar una nueva vida en Los Ángeles. Los acontecimientos...

    Director: Hallie Meyers-Shyer

    Género: Comedia

    Actores: Reid Scott

  • The Walking Dead (2017) Temporada 8 WEBDL 1080p Latino

    2017
    The Walking Dead (2017) Temporada 8 WEBDL 1080p Latino

    5.0 0h 42m 2017

    Rick, Maggie y Ezekiel reúnen a sus comunidades para derrotar a Negan y los salvadores. Gregory intenta...

    Director: Frank Darabont

    Género: Action & Adventure

    Actores: Norman Reedus

Comentarios 0