Mafia: Survival Game (2016) 720p Latino

1.029 vistas
1 estrella2 estrellas3 estrellas4 estrellas5 estrellas (Ninguna valoración todavía)
Cargando…

Información de Mafia: Survival Game (2016) 720p Latino

Datos de la película

  • Calidad: WEBDL
  • Audio: Se especifica abajo de la Sinopsis
  • Subtitulos: Español Latino SRT - Ingles SRT
  • Resolución: 1280x536p
  • Formato: MKV
  • Codec: H.264
  • Encoder: Dpelis
  • Mediainfo: Ver Ver
  • Mafia.survival.game.2016.720p.Latino.mkv
    Format                      : Matroska
    Format version              : Version 4 / Version 2
    File size                   : 1.49 GiB
    Duration                    : 1 h 31 min
    Overall bit rate            : 2 338 kb/s
    Movie name                  : DPeliculasHDMega.ORG
    Encoded date                : UTC 2017-07-15 12:53:08 / UTC 2017-07-15T06:06:22Z
    Writing application         : mkvmerge v10.0.0 ('To Drown In You') 64bit
    Writing library             : libebml v1.3.4 + libmatroska v1.4.5 / Lavf57.7.2

    Video
    ID                          : 1
    Format                      : AVC
    Format/Info                 : Advanced Video Codec
    Format profile              : [email protected]
    Format settings, CABAC      : Yes
    Format settings, ReFrames   : 4 frames
    Codec ID                    : V_MPEG4/ISO/AVC
    Duration                    : 1 h 31 min
    Bit rate                    : 1 700 kb/s
    Width                       : 1 280 pixels
    Height                      : 536 pixels
    Display aspect ratio        : 2.40:1
    Frame rate mode             : Constant
    Frame rate                  : 23.976 (24000/1001) FPS
    Color space                 : YUV
    Chroma subsampling          : 4:2:0
    Bit depth                   : 8 bits
    Scan type                   : Progressive
    Bits/(Pixel*Frame)          : 0.103
    Stream size                 : 1.05 GiB (71%)
    Writing library             : x264 core 148 r2708 86b7198
    Encoding settings           : cabac=1 / ref=3 / deblock=1:0:0 / analyse=0x3:0x113 / me=hex / subme=7 / psy=1 / psy_rd=1.00:0.00 / mixed_ref=1 / me_range=16 / chroma_me=1 / trellis=1 / 8x8dct=1 / cqm=0 / deadzone=21,11 / fast_pskip=1 / chroma_qp_offset=-2 / threads=12 / lookahead_threads=2 / sliced_threads=0 / nr=0 / decimate=1 / interlaced=0 / bluray_compat=0 / constrained_intra=0 / bframes=3 / b_pyramid=2 / b_adapt=1 / b_bias=0 / direct=1 / weightb=1 / open_gop=0 / weightp=2 / keyint=240 / keyint_min=24 / scenecut=40 / intra_refresh=0 / rc_lookahead=40 / rc=2pass / mbtree=1 / bitrate=1700 / ratetol=1.0 / qcomp=0.60 / qpmin=0 / qpmax=69 / qpstep=4 / cplxblur=20.0 / qblur=0.5 / vbv_maxrate=62500 / vbv_bufsize=78125 / nal_hrd=none / filler=0 / ip_ratio=1.40 / aq=1:1.00
    Default                     : Yes
    Forced                      : No
    Color range                 : Limited
    Color primaries             : BT.709
    Transfer characteristics    : BT.709
    Matrix coefficients         : BT.709
    Statistics Tags Issue       : mkvmerge v10.0.0 ('To Drown In You') 64bit 2017-07-15 12:53:08 / mkvmerge v10.0.0 ('To Drown In You') 64bit 2017-07-15 12:53:08 / UTC 2017-07-15T06:06:22Z
    FromStats_BitRate           : 1699033
    FromStats_Duration          : 01:31:05.961000000
    FromStats_FrameCount        : 131052
    FromStats_StreamSize        : 1160856395

    Audio #1
    ID                          : 2
    Format                      : AC-3
    Format/Info                 : Audio Coding 3
    Format settings, Endianness : Big
    Codec ID                    : A_AC3
    Duration                    : 1 h 31 min
    Bit rate mode               : Constant
    Bit rate                    : 256 kb/s
    Channel(s)                  : 2 channels
    Channel positions           : Front: L R
    Sampling rate               : 48.0 kHz
    Frame rate                  : 31.250 FPS (1536 spf)
    Bit depth                   : 16 bits
    Compression mode            : Lossy
    Delay relative to video     : -5 ms
    Stream size                 : 167 MiB (11%)
    Title                       : Stereo
    Language                    : Spanish
    Service kind                : Complete Main
    Default                     : Yes
    Forced                      : No
    Statistics Tags Issue       : mkvmerge v10.0.0 ('To Drown In You') 64bit 2017-07-15 12:53:08 / mkvmerge v10.0.0 ('To Drown In You') 64bit 2017-07-15 12:53:08 / UTC 2017-07-15T06:06:22Z
    FromStats_BitRate           : 256000
    FromStats_Duration          : 01:29:53.952000000
    FromStats_FrameCount        : 168561
    FromStats_StreamSize        : 172606464

    Audio #2
    ID                          : 3
    Format                      : AC-3
    Format/Info                 : Audio Coding 3
    Format settings, Endianness : Big
    Codec ID                    : A_AC3
    Duration                    : 1 h 31 min
    Bit rate mode               : Constant
    Bit rate                    : 384 kb/s
    Channel(s)                  : 6 channels
    Channel positions           : Front: L C R, Side: L R, LFE
    Sampling rate               : 48.0 kHz
    Frame rate                  : 31.250 FPS (1536 spf)
    Bit depth                   : 16 bits
    Compression mode            : Lossy
    Delay relative to video     : -5 ms
    Stream size                 : 250 MiB (16%)
    Title                       : Surround
    Language                    : Russian
    Service kind                : Complete Main
    Default                     : No
    Forced                      : No
    Statistics Tags Issue       : mkvmerge v10.0.0 ('To Drown In You') 64bit 2017-07-15 12:53:08 / mkvmerge v10.0.0 ('To Drown In You') 64bit 2017-07-15 12:53:08 / UTC 2017-07-15T06:06:22Z
    FromStats_BitRate           : 384000
    FromStats_Duration          : 01:31:06.016000000
    FromStats_FrameCount        : 170813
    FromStats_StreamSize        : 262368768

    Text #1
    ID                          : 4
    Format                      : UTF-8
    Codec ID                    : S_TEXT/UTF8
    Codec ID/Info               : UTF-8 Plain Text
    Language                    : Spanish
    Default                     : Yes
    Forced                      : No
    Statistics Tags Issue       : mkvmerge v10.0.0 ('To Drown In You') 64bit 2017-07-15 12:53:08 / mkvmerge v10.0.0 ('To Drown In You') 64bit 2017-07-15 12:53:08 / UTC 2017-07-15T06:06:22Z
    FromStats_BitRate           : 56
    FromStats_Duration          : 01:26:36.849000000
    FromStats_FrameCount        : 813
    FromStats_StreamSize        : 36884

    Text #2
    ID                          : 5
    Format                      : UTF-8
    Codec ID                    : S_TEXT/UTF8
    Codec ID/Info               : UTF-8 Plain Text
    Language                    : English
    Default                     : No
    Forced                      : No
    Statistics Tags Issue       : mkvmerge v10.0.0 ('To Drown In You') 64bit 2017-07-15 12:53:08 / mkvmerge v10.0.0 ('To Drown In You') 64bit 2017-07-15 12:53:08 / UTC 2017-07-15T06:06:22Z
    FromStats_BitRate           : 48
    FromStats_Duration          : 01:26:34.339000000
    FromStats_FrameCount        : 770
    FromStats_StreamSize        : 31286

    Menu
    00:00:00.000                : :Chapter 1
    00:05:00.300                : :Chapter 2
    00:08:52.532                : :Chapter 3
    00:09:59.599                : :Chapter 4
    00:14:59.899                : :Chapter 5
    00:18:26.105                : :Chapter 6
    00:20:00.199                : :Chapter 7
    00:25:00.499                : :Chapter 8
    00:27:38.657                : :Chapter 9
    00:29:59.798                : :Chapter 10
    00:35:00.098                : :Chapter 11
    00:37:31.249                : :Chapter 12
    00:39:59.397                : :Chapter 13
    00:45:00.698                : :Chapter 14
    00:48:14.892                : :Chapter 15
    00:52:05.122                : :Chapter 16
    00:56:05.362                : :Chapter 17
    01:00:47.644                : :Chapter 18
    01:04:28.865                : :Chapter 19
    01:09:00.136                : :Chapter 20
    01:13:21.397                : :Chapter 21
    01:18:01.677                : :Chapter 22
    01:22:52.968                : :Chapter 23
    01:28:26.301                : :Chapter 24

  • Peso: 1.49 GB

Sinopsis

La acción tiene lugar en un futuro lejano. En Moscú tiene lugar el programa de televisión más popular del mundo, en el que once personas se reunirán para descubrir quién es civil y quién es un mafioso. Hay mucho en juego: el ganador recibirá un gran premio en efectivo, pero los perdedores obtendrán la muerte.

Español Latino AC3 2.0 – Ruso AC3 5.1

Ficha técnica

Imágenes, Capturas de la película

Video trailer de la película

Enlaces de descarga

Descargar Mafia: Survival Game (2016) 720p Latino
Descargar

dpeliculas

Aportes de DPeliculasHDmega la pass es:dpeliculashdmega.org Aportes de CinemaniaHD la pass es:cinemaniahdd.com
Guardado en : Acción , Ciencia ficción

PelícuDelas relacionadas

  • Operation Mekong (2016) 1080p Latino

    2016
    Operation Mekong (2016) 1080p Latino

    5.0 2h 4m 2016

    A lo largo del río Mekong se encuentra el llamado triángulo dorado, uno de los mayores proveedores...

    Director: Dante Lam

    Género: Acción

    Actores: Zhao Jian

  • Collide (2016) 1080p Latino

    2016
    Collide (2016) 1080p Latino

    0.0 1h 39m 2016

    Descargar Persecucion al limite hd latino. Tambien conocida como Collide 1080p Cuando uno de los atracos...

    Director: Eran Creevy

    Género: Acción

    Actores: Nicholas Hoult

Comentarios 0