The Lion Woman (2016) Webdl 1080p Latino

1.135 vistas
1 estrella2 estrellas3 estrellas4 estrellas5 estrellas (Ninguna valoración todavía)
Cargando…

Información de The Lion Woman (2016) Webdl 1080p Latino

Datos de la película

  • Calidad: WEBDL
  • Audio: Se especifica abajo de la Sinopsis
  • Subtitulos: No
  • Resolución: 1912x796p
  • Formato: MKV
  • Codec: H.264
  • Encoder: Dpelis
  • Mediainfo: Ver Ver
  • The Lion Woman (2016) Webdl 1080p Latino.mkv
    Format                      : Matroska
    Format version              : Version 4 / Version 2
    File size                   : 4.29 GiB
    Duration                    : 1 h 57 min
    Overall bit rate            : 5 215 kb/s
    Encoded date                : UTC 2017-07-27 15:03:55
    Writing application         : mkvmerge v10.0.0 ('To Drown In You') 64bit
    Writing library             : libebml v1.3.4 + libmatroska v1.4.5

    Video
    ID                          : 1
    Format                      : AVC
    Format/Info                 : Advanced Video Codec
    Format profile              : [email protected]
    Format settings, CABAC      : Yes
    Format settings, ReFrames   : 5 frames
    Codec ID                    : V_MPEG4/ISO/AVC
    Duration                    : 1 h 57 min
    Bit rate                    : 4 573 kb/s
    Width                       : 1 912 pixels
    Height                      : 796 pixels
    Display aspect ratio        : 2.40:1
    Frame rate mode             : Constant
    Frame rate                  : 24.000 FPS
    Color space                 : YUV
    Chroma subsampling          : 4:2:0
    Bit depth                   : 8 bits
    Scan type                   : Progressive
    Bits/(Pixel*Frame)          : 0.125
    Stream size                 : 3.76 GiB (88%)
    Language                    : English
    Default                     : Yes
    Forced                      : No
    Color range                 : Limited
    Color primaries             : BT.709
    Transfer characteristics    : BT.709
    Matrix coefficients         : BT.709

    Audio #1
    ID                          : 2
    Format                      : AC-3
    Format/Info                 : Audio Coding 3
    Format settings, Endianness : Big
    Codec ID                    : A_AC3
    Duration                    : 1 h 57 min
    Bit rate mode               : Constant
    Bit rate                    : 256 kb/s
    Channel(s)                  : 2 channels
    Channel positions           : Front: L R
    Sampling rate               : 48.0 kHz
    Frame rate                  : 31.250 FPS (1536 spf)
    Bit depth                   : 16 bits
    Compression mode            : Lossy
    Stream size                 : 216 MiB (5%)
    Language                    : Spanish
    Service kind                : Complete Main
    Default                     : Yes
    Forced                      : No

    Audio #2
    ID                          : 3
    Format                      : AC-3
    Format/Info                 : Audio Coding 3
    Format settings, Endianness : Big
    Codec ID                    : A_AC3
    Duration                    : 1 h 57 min
    Bit rate mode               : Constant
    Bit rate                    : 384 kb/s
    Channel(s)                  : 6 channels
    Channel positions           : Front: L C R, Side: L R, LFE
    Sampling rate               : 48.0 kHz
    Frame rate                  : 31.250 FPS (1536 spf)
    Bit depth                   : 16 bits
    Compression mode            : Lossy
    Stream size                 : 323 MiB (7%)
    Language                    : Norwegian
    Service kind                : Complete Main
    Default                     : No
    Forced                      : No

    Menu
    00:00:00.000                : en:Capítulo 1
    00:14:29.625                : en:Capítulo 2
    00:30:10.416                : en:Capítulo 3
    00:46:09.999                : en:Capítulo 4
    01:00:56.999                : en:Capítulo 5
    01:14:21.539                : en:Capítulo 6
    01:30:10.914                : en:Capítulo 7
    01:43:57.621                : en:Capítulo 8

  • Peso: 4.29 GB

Sinopsis

Hace un siglo, una chica nació con piel peluda. Este fenómeno afectará a su vida y a la pequeña comunidad en la que vive.

 

Español Latino AC3 2.0 0 – Noruego AC3 5.1

Ficha técnica

  • Titulo original: Løvekvinnen
  • Fecha de lanzamiento: 31-08-2017 (Norway)
  • Director: Vibeke Idsøe
  • Género: Drama
  • Puntuación: 0.0 0 votos
  • Duración:
    0h 0m

Imágenes, Capturas de la película

Video trailer de la película

Enlaces de descarga

Descargar The Lion Woman (2016) Webdl 1080p Latino
Descargar

dpeliculas

Aportes de DPeliculasHDmega la pass es:dpeliculashdmega.org Aportes de CinemaniaHD la pass es:cinemaniahdd.com
Guardado en : Drama

PelícuDelas relacionadas

  • La vida de Pi (2012) 2160p 4K UHD Latino-Ingles

    2012
    La vida de Pi (2012) 2160p 4K UHD Latino-Ingles

    0.0 2h 7m 2012

    Descargar gratis La vida de Pi (2012) 2160p 4K UHD Latino-Ingles.  Pi Patel es un muchacho cuyo padre...

    Director: Ang Lee

    Género: 4K HDR

    Actores: Wang Bo-Chieh

  • Arrow (2017) Temporada 6 WEBDL 1080p Subtitulada

    2012
    Arrow (2017) Temporada 6 WEBDL 1080p Subtitulada

    0.0 0h 42m 2012

    Con el futuro del equipo pendiendo de un hilo, Arrow le dio una nueva definición a la frase “explotar...

    Director: Marc Guggenheim

    Género: Acción

    Actores: Willa Holland

  • La guerra del planeta de los simios (2017) 1080p Latino

    2017
    La guerra del planeta de los simios (2017) 1080p Latino

    5.0 2h 20m 2017

    En War for the Planet of the Apes, el tercer capítulo de la exitosa franquicia aclamada por la crítica,...

    Director: Matt Reeves

    Género: Ciencia ficción

    Actores: Woody Harrelson

  • En este rincón del mundo (2016) 1080p Latino

    2016
    En este rincón del mundo (2016) 1080p Latino

    0.0 2h 10m 2016

    La historia narra la vida de una familia residente en la ciudad de Kure (Hiroshima) durante la II Guerra...

    Director: Sunao Katabuchi

    Género: Animación

    Actores: Yoshimasa Hosoya

Comentarios 2
  • jose - 27 julio, 2017

    archivo 2 no descarga….

    • dpelis

      Administrador
      - 29 julio, 2017

      usar otro servidor