Los fantasmas de mis ex-novias (2009) 1080p Latino

819 vistas
1 estrella2 estrellas3 estrellas4 estrellas5 estrellas (Ninguna valoración todavía)
Cargando…

Información de Los fantasmas de mis ex-novias (2009) 1080p Latino

Datos de la película

  • Calidad: 1080p
  • Audio: Español Latino AC3 5.1 DVD - Ingles AC3 5.1 BLURAY
  • Subtitulos: Español Latino SRT - Ingles SRT
  • Resolución: 1920x800p
  • Formato: MKV
  • Codec: H.264
  • Encoder: Dpelis
  • Mediainfo: Ver Ver
  • Ghosts Of Girlfriends Past.2009.1080p.LATINO.mkv
    Format                      : Matroska
    Format version              : Version 4 / Version 2
    File size                   : 2.98 GiB
    Duration                    : 1 h 40 min
    Overall bit rate            : 4 231 kb/s
    Movie name                  : DPeliculasHDMega.ORG
    Encoded date                : UTC 2017-06-12 00:41:46 / UTC 2017-05-29T20:32:18Z
    Writing application         : mkvmerge v10.0.0 ('To Drown In You') 64bit
    Writing library             : libebml v1.3.4 + libmatroska v1.4.5 / Lavf57.7.2

    Video
    ID                          : 1
    Format                      : AVC
    Format/Info                 : Advanced Video Codec
    Format profile              : [email protected]
    Format settings, CABAC      : Yes
    Format settings, ReFrames   : 4 frames
    Codec ID                    : V_MPEG4/ISO/AVC
    Duration                    : 1 h 40 min
    Bit rate                    : 3 500 kb/s
    Width                       : 1 920 pixels
    Height                      : 800 pixels
    Display aspect ratio        : 2.40:1
    Frame rate mode             : Constant
    Frame rate                  : 23.976 (24000/1001) FPS
    Color space                 : YUV
    Chroma subsampling          : 4:2:0
    Bit depth                   : 8 bits
    Scan type                   : Progressive
    Bits/(Pixel*Frame)          : 0.095
    Stream size                 : 2.38 GiB (80%)
    Writing library             : x264 core 148 r2708 86b7198
    Encoding settings           : cabac=1 / ref=3 / deblock=1:0:0 / analyse=0x3:0x113 / me=hex / subme=7 / psy=1 / psy_rd=1.00:0.00 / mixed_ref=1 / me_range=16 / chroma_me=1 / trellis=1 / 8x8dct=1 / cqm=0 / deadzone=21,11 / fast_pskip=1 / chroma_qp_offset=-2 / threads=12 / lookahead_threads=2 / sliced_threads=0 / nr=0 / decimate=1 / interlaced=0 / bluray_compat=0 / constrained_intra=0 / bframes=3 / b_pyramid=2 / b_adapt=1 / b_bias=0 / direct=1 / weightb=1 / open_gop=0 / weightp=2 / keyint=240 / keyint_min=24 / scenecut=40 / intra_refresh=0 / rc_lookahead=40 / rc=abr / mbtree=1 / bitrate=3500 / ratetol=1.0 / qcomp=0.60 / qpmin=0 / qpmax=69 / qpstep=4 / vbv_maxrate=62500 / vbv_bufsize=78125 / nal_hrd=none / filler=0 / ip_ratio=1.40 / aq=1:1.00
    Default                     : Yes
    Forced                      : No
    Color range                 : Limited
    Color primaries             : BT.709
    Transfer characteristics    : BT.709
    Matrix coefficients         : BT.709
    Statistics Tags Issue       : mkvmerge v10.0.0 ('To Drown In You') 64bit 2017-06-12 00:41:46 / mkvmerge v10.0.0 ('To Drown In You') 64bit 2017-06-12 00:41:46 / UTC 2017-05-29T20:32:18Z
    FromStats_BitRate           : 3468982
    FromStats_Duration          : 01:40:37.991000000
    FromStats_FrameCount        : 144767
    FromStats_StreamSize        : 2618210879

    Audio #1
    ID                          : 2
    Format                      : AC-3
    Format/Info                 : Audio Coding 3
    Format settings, Endianness : Big
    Codec ID                    : A_AC3
    Duration                    : 1 h 40 min
    Bit rate mode               : Constant
    Bit rate                    : 384 kb/s
    Channel(s)                  : 6 channels
    Channel positions           : Front: L C R, Side: L R, LFE
    Sampling rate               : 48.0 kHz
    Frame rate                  : 31.250 FPS (1536 spf)
    Bit depth                   : 16 bits
    Compression mode            : Lossy
    Delay relative to video     : -5 ms
    Stream size                 : 277 MiB (9%)
    Title                       : Sorround
    Language                    : Spanish
    Service kind                : Complete Main
    Default                     : Yes
    Forced                      : No
    Statistics Tags Issue       : mkvmerge v10.0.0 ('To Drown In You') 64bit 2017-06-12 00:41:46 / mkvmerge v10.0.0 ('To Drown In You') 64bit 2017-06-12 00:41:46 / UTC 2017-05-29T20:32:18Z
    FromStats_BitRate           : 384000
    FromStats_Duration          : 01:39:01.952000000
    FromStats_FrameCount        : 185686
    FromStats_StreamSize        : 285213696

    Audio #2
    ID                          : 3
    Format                      : AC-3
    Format/Info                 : Audio Coding 3
    Format settings, Endianness : Big
    Codec ID                    : A_AC3
    Duration                    : 1 h 40 min
    Bit rate mode               : Constant
    Bit rate                    : 384 kb/s
    Channel(s)                  : 6 channels
    Channel positions           : Front: L C R, Side: L R, LFE
    Sampling rate               : 48.0 kHz
    Frame rate                  : 31.250 FPS (1536 spf)
    Bit depth                   : 16 bits
    Compression mode            : Lossy
    Delay relative to video     : -5 ms
    Stream size                 : 277 MiB (9%)
    Title                       : Surround
    Language                    : English
    Service kind                : Complete Main
    Default                     : No
    Forced                      : No
    Statistics Tags Issue       : mkvmerge v10.0.0 ('To Drown In You') 64bit 2017-06-12 00:41:46 / mkvmerge v10.0.0 ('To Drown In You') 64bit 2017-06-12 00:41:46 / UTC 2017-05-29T20:32:18Z
    FromStats_BitRate           : 384000
    FromStats_Duration          : 01:40:41.024000000
    FromStats_FrameCount        : 188782
    FromStats_StreamSize        : 289969152

    Text #1
    ID                          : 4
    Format                      : UTF-8
    Codec ID                    : S_TEXT/UTF8
    Codec ID/Info               : UTF-8 Plain Text
    Default                     : Yes
    Forced                      : No
    Statistics Tags Issue       : mkvmerge v10.0.0 ('To Drown In You') 64bit 2017-06-12 00:41:46 / mkvmerge v10.0.0 ('To Drown In You') 64bit 2017-06-12 00:41:46 / UTC 2017-05-29T20:32:18Z
    FromStats_BitRate           : 71
    FromStats_Duration          : 01:40:01.591000000
    FromStats_FrameCount        : 1434
    FromStats_StreamSize        : 53315

    Text #2
    ID                          : 5
    Format                      : UTF-8
    Codec ID                    : S_TEXT/UTF8
    Codec ID/Info               : UTF-8 Plain Text
    Default                     : No
    Forced                      : No
    Statistics Tags Issue       : mkvmerge v10.0.0 ('To Drown In You') 64bit 2017-06-12 00:41:46 / mkvmerge v10.0.0 ('To Drown In You') 64bit 2017-06-12 00:41:46 / UTC 2017-05-29T20:32:18Z
    FromStats_BitRate           : 91
    FromStats_Duration          : 01:40:39.588000000
    FromStats_FrameCount        : 1534
    FromStats_StreamSize        : 69034

    Menu
    00:00:00.000                : :00:00:00.000
    00:03:10.649                : :00:03:10.649
    00:06:08.618                : :00:06:08.618
    00:11:17.051                : :00:11:16.968
    00:13:22.802                : :00:13:22.802
    00:17:59.287                : :00:17:59.287
    00:20:40.823                : :00:20:40.823
    00:23:44.548                : :00:23:44.548
    00:27:41.535                : :00:27:41.535
    00:29:39.695                : :00:29:39.695
    00:32:39.082                : :00:32:39.082
    00:37:10.520                : :00:37:10.520
    00:42:08.484                : :00:42:08.484
    00:47:41.233                : :00:47:41.233
    00:50:27.942                : :00:50:27.942
    00:53:29.748                : :00:53:29.748
    00:59:18.722                : :00:59:18.722
    01:02:25.659                : :01:02:25.659
    01:06:59.265                : :01:06:59.265
    01:11:32.747                : :01:11:32.747
    01:14:07.234                : :01:14:07.234
    01:17:44.577                : :01:17:44.577
    01:20:36.206                : :01:20:36.206
    01:26:07.663                : :01:26:07.662
    01:29:56.474                : :01:29:56.474
    01:34:46.014                : :01:34:46.014

  • Peso: 2.98 GB

Sinopsis

Connor Mead (Matthew McConaughey), fotógrafo de famosos, adora su libertad, la diversión y las mujeres …. en ese orden. Soltero empedernido, con una estricta política de no tener ninguna atadura, no lo piensa dos veces a la hora de terminar las relaciones que tiene con varias mujeres a la vez a través de una llamada en conferencia, al tiempo que va preparando su estrategia para su próxima cita.
Paul, el hermano de Connor, es más bien el tipo romántico. De hecho, tiene planes de boda. Desafortunadamente, la noche antes del gran evento, Connor y su actitud sarcástica ante el romance sirvió para desanimar totalmente a Paul, los preparativos de la fiesta y a otros muchos amigos, incluyendo a Jenny (Jennifer Garner), amiga de la infancia de Connor y quien siempre ha permanecido inmune a su considerable encanto.

Ficha técnica

  • Titulo original: Ghosts of Girlfriends Past
  • Fecha de lanzamiento: 01-05-2009 (United States of America)
  • Director: Mark Waters
  • Género: Comedia, Fantasía, Romance
  • Puntuación: 0.0 0 votos
  • Duración:
    1h 36m

Imágenes, Capturas de la película

Video trailer de la película

Enlaces de descarga

Descargar Los fantasmas de mis ex-novias (2009) 1080p Latino
Descargar

dpeliculas

Aportes de DPeliculasHDmega la pass es:dpeliculashdmega.org Aportes de CinemaniaHD la pass es:cinemaniahdd.com
Guardado en : Comedia , Fantasía , Romance

PelícuDelas relacionadas

  • It – Eso (1990) WEBDL 1080p Latino

    1990
    It – Eso (1990) WEBDL 1080p Latino

    0.0 3h 7m 1990

    Descargar Stephen King's It  hd latino, tambien conocida como It o ESO Un tranquilo y pequeño pueblo...

    Director: Tommy Lee Wallace

    Género: Drama

    Actores: Tim Reid

  • La momia (2017) Webdl 1080p Latino

    2017
    La momia (2017) Webdl 1080p Latino

    4.0 1h 50m 2017

    Descargar La momia 2017 1080p webdl  Latino, esta pelicula estara disponible con audio latino final...

    Director: Jo Beckett

    Género: Acción

    Actores: Vera Chok

  • Spark: A Space Tail (2016) 1080p Latino

    2017
    Spark: A Space Tail (2016) 1080p Latino

    0.0 1h 30m 2017

    Hace 13 años el malvado General Zhong tomó el control del planeta Bana. Ahora no solo quiere gobernar...

    Director: Aaron Woodley

    Género: Animación

    Actores: Susan Sarandon

Comentarios 2
  • slash - 17 Junio, 2017

    Gracias cinemania, quisiera hacerte una sugerencia, no se si puedas añadir una “Nota Final” sobre las versiones de películas, por citar un ejemplo, en la película Depredador poner en la parte final de la descripción, sinopsis o ficha técnica, una cita que diga “Versión Plateada Única”, y en el caso de las negras añadir lo mismo “Versión Negra Única”, y si es que haya una versión de mayor calidad poner “Próximamente Versión Plateada”.

    Este comentario te lo pongo, por que tienes películas muy buenas en caratula negra, y sería bueno saber si las publicaras en plateada, sucede lo mismo con las plateadas, hay usuarios que desean saber si habrá versión negra de esta misma. Saludos y nuevamente gracias por la calidad excelente de las películas.

    • dpelis

      Administrador
      - 18 Junio, 2017

      lo tomare, en cuenta, veré si hacemos negras y plateadas, saludos