Los Expedientes Secretos X (1996) Temporada 4 Full 1080p Latino

569 vistas
1 estrella2 estrellas3 estrellas4 estrellas5 estrellas (1 votos, promedio: 5,00 de 5)
Cargando…

Información de Los Expedientes Secretos X (1996) Temporada 4 Full 1080p Latino

Datos de la película

  • Calidad: Full 1080p
  • Audio: Español Latino AC3 2.0 BLURAY - Ingles AC3 5.1 BLURAY
  • Subtitulos: Español Latino PGS - Ingles PGS
  • Resolución: 1920x1080p
  • Formato: MKV
  • Codec: H.264
  • Encoder: Dpelis
  • Mediainfo: Ver Ver
  • The X-files S04E01 Full 1080p Latino.mkv
    Format                      : Matroska
    Format version              : Version 4 / Version 2
    File size                   : 3.56 GiB
    Duration                    : 44 min 0 s
    Overall bit rate            : 11.6 Mb/s
    Encoded date                : UTC 2017-06-23 21:17:49 / UTC 2017-06-11T10:21:02Z
    Writing application         : mkvmerge v8.9.0 ('Father Daughter') 64bit
    Writing library             : libebml v1.3.3 + libmatroska v1.4.4 / Lavf57.7.2

    Video
    ID                          : 1
    Format                      : AVC
    Format/Info                 : Advanced Video Codec
    Format profile              : [email protected]
    Format settings, CABAC      : Yes
    Format settings, ReFrames   : 4 frames
    Codec ID                    : V_MPEG4/ISO/AVC
    Duration                    : 44 min 0 s
    Bit rate                    : 10.7 Mb/s
    Width                       : 1 920 pixels
    Height                      : 1 080 pixels
    Display aspect ratio        : 16:9
    Frame rate mode             : Constant
    Frame rate                  : 23.976 (24000/1001) FPS
    Color space                 : YUV
    Chroma subsampling          : 4:2:0
    Bit depth                   : 8 bits
    Scan type                   : Progressive
    Bits/(Pixel*Frame)          : 0.215
    Stream size                 : 3.28 GiB (92%)
    Writing library             : x264 core 148 r2708 86b7198
    Encoding settings           : cabac=1 / ref=4 / deblock=1:0:0 / analyse=0x3:0x133 / me=esa / subme=9 / psy=1 / psy_rd=1.00:0.00 / mixed_ref=1 / me_range=16 / chroma_me=1 / trellis=2 / 8x8dct=1 / cqm=0 / deadzone=21,11 / fast_pskip=1 / chroma_qp_offset=-2 / threads=34 / lookahead_threads=2 / sliced_threads=0 / nr=0 / decimate=1 / interlaced=0 / bluray_compat=0 / constrained_intra=0 / bframes=3 / b_pyramid=2 / b_adapt=2 / b_bias=0 / direct=3 / weightb=1 / open_gop=0 / weightp=2 / keyint=240 / keyint_min=24 / scenecut=40 / intra_refresh=0 / rc_lookahead=60 / rc=crf / mbtree=1 / crf=20.0 / qcomp=0.60 / qpmin=0 / qpmax=69 / qpstep=4 / vbv_maxrate=62500 / vbv_bufsize=78125 / crf_max=0.0 / nal_hrd=none / filler=0 / ip_ratio=1.40 / aq=1:1.00
    Default                     : Yes
    Forced                      : No
    Color range                 : Limited
    Color primaries             : BT.709
    Transfer characteristics    : BT.709
    Matrix coefficients         : BT.709
    Statistics Tags Issue       : mkvmerge v8.9.0 ('Father Daughter') 64bit 2017-06-23 21:17:49 / mkvmerge v8.9.0 ('Father Daughter') 64bit 2017-06-23 21:17:49 / UTC 2017-06-11T10:21:02Z
    FromStats_BitRate           : 10888271
    FromStats_Duration          : 00:44:00.138000000
    FromStats_FrameCount        : 63300
    FromStats_StreamSize        : 3593317259

    Audio #1
    ID                          : 2
    Format                      : AC-3
    Format/Info                 : Audio Coding 3
    Mode                        : Dolby Digital
    Format settings, Endianness : Big
    Codec ID                    : A_AC3
    Duration                    : 44 min 0 s
    Bit rate mode               : Constant
    Bit rate                    : 224 kb/s
    Channel(s)                  : 2 channels
    Channel positions           : Front: L R
    Sampling rate               : 48.0 kHz
    Frame rate                  : 31.250 FPS (1536 spf)
    Bit depth                   : 16 bits
    Compression mode            : Lossy
    Stream size                 : 70.5 MiB (2%)
    Title                       : Stereo
    Language                    : Spanish
    Service kind                : Complete Main
    Default                     : Yes
    Forced                      : No
    Statistics Tags Issue       : mkvmerge v8.9.0 ('Father Daughter') 64bit 2017-06-23 21:17:49 / mkvmerge v8.9.0 ('Father Daughter') 64bit 2017-06-23 21:17:49 / UTC 2017-06-11T10:21:02Z
    FromStats_BitRate           : 224000
    FromStats_Duration          : 00:44:00.192000000
    FromStats_FrameCount        : 82506
    FromStats_StreamSize        : 73925376

    Audio #2
    ID                          : 3
    Format                      : AC-3
    Format/Info                 : Audio Coding 3
    Format settings, Endianness : Big
    Codec ID                    : A_AC3
    Duration                    : 44 min 0 s
    Bit rate mode               : Constant
    Bit rate                    : 448 kb/s
    Channel(s)                  : 6 channels
    Channel positions           : Front: L C R, Side: L R, LFE
    Sampling rate               : 48.0 kHz
    Frame rate                  : 31.250 FPS (1536 spf)
    Bit depth                   : 16 bits
    Compression mode            : Lossy
    Stream size                 : 141 MiB (4%)
    Title                       : Surround
    Language                    : English
    Service kind                : Complete Main
    Default                     : No
    Forced                      : No
    Statistics Tags Issue       : mkvmerge v8.9.0 ('Father Daughter') 64bit 2017-06-23 21:17:49 / mkvmerge v8.9.0 ('Father Daughter') 64bit 2017-06-23 21:17:49 / UTC 2017-06-11T10:21:02Z
    FromStats_BitRate           : 448000
    FromStats_Duration          : 00:44:00.192000000
    FromStats_FrameCount        : 82506
    FromStats_StreamSize        : 147850752

    Text #1
    ID                          : 4
    Format                      : PGS
    Muxing mode                 : zlib
    Codec ID                    : S_HDMV/PGS
    Codec ID/Info               : Picture based subtitle format used on BDs/HD-DVDs
    Language                    : Spanish
    Default                     : No
    Forced                      : No
    Statistics Tags Issue       : mkvmerge v8.9.0 ('Father Daughter') 64bit 2017-06-23 21:17:49 / mkvmerge v8.9.0 ('Father Daughter') 64bit 2017-06-23 21:17:49 / UTC 2017-06-11T10:21:02Z
    FromStats_BitRate           : 7065
    FromStats_Duration          : 00:42:39.682000000
    FromStats_FrameCount        : 628
    FromStats_StreamSize        : 2260710

    Text #2
    ID                          : 5
    Format                      : PGS
    Muxing mode                 : zlib
    Codec ID                    : S_HDMV/PGS
    Codec ID/Info               : Picture based subtitle format used on BDs/HD-DVDs
    Language                    : English
    Default                     : No
    Forced                      : No
    Statistics Tags Issue       : mkvmerge v8.9.0 ('Father Daughter') 64bit 2017-06-23 21:17:49 / mkvmerge v8.9.0 ('Father Daughter') 64bit 2017-06-23 21:17:49 / UTC 2017-06-11T10:21:02Z
    FromStats_BitRate           : 7537
    FromStats_Duration          : 00:42:44.061000000
    FromStats_FrameCount        : 678
    FromStats_StreamSize        : 2415706

  • Peso: 3.50 GB Aprox/C 86 GB Total

Sinopsis

La 4 temporada de The X-Files comenzó en Estados Unidos con la emisión del primer capítulo el 4 de octubre de 1996, y finalizó el 18 de mayo de 1997.

 

Jeremiah Smith y Mulder están en la búsqueda del Cazador Extraterrestre, y Smith lleva a Mulder a una pequeña granja atendida por niños idénticos, donde las niñas son clones exactos de su hermana de pequeña. Mulder se prepara para llevar a Jeremiah y uno de los clones a ver a su madre en el hospital pero el Cazador los encuentra y mata a Jeremiah. Mientras, el Sindicato sospecha que hay un traidor entre ellos y preparan un plan que termina con X siendo ejecutado

Ficha técnica

  • Titulo original: The X-Files Season 4 Complete
  • Fecha de lanzamiento: 04-10-1996 (United States of America)
  • Género: Ciencia ficción, FULL 1080p Pesadas, Series
  • Puntuación: 5.0 1 votos
  • Duración:
    0h 44m

Imágenes, Capturas de la película

Video trailer de la película

Enlaces de descarga

Descargar Los Expedientes Secretos X (1996) Temporada 4 Full 1080p Latino
Descargar

dpeliculas

Aportes de DPeliculasHDmega la pass es:dpeliculashdmega.org Aportes de CinemaniaHD la pass es:cinemaniahdd.com

PelícuDelas relacionadas

  • Dragon Ball Super (2015) Full 1080p Latino

    2015
    Dragon Ball Super (2015) Full 1080p Latino

    5.0 0h 24m 2015

    Si eres un seguidor de la serie Dragon ball super latino, entonces ahora puedes disfrutar de esta maravillosa...

    Director: Akira Toriyama

    Género: Anime

    Actores: Naoki Tatsuta

  • The Grudge 3 (2009) Full Latino

    2009
    The Grudge 3 (2009) Full Latino

    0.0 1h 30m 2009

    Descargar gratis The Grudge 3 (2009) Full Latino. Tercera entrega americana de la saga iniciada por Takashi...

    Director: Toby Wilkins

    Género: FULL 1080p Pesadas

    Actores: Shimba Tsuchiya

  • The Grudge 2 (2006) Director’s cut Full Latino

    2006
    The Grudge 2 (2006) Director’s cut Full Latino

    0.0 1h 42m 2006

    Descargar gratis The Grudge 2 (2006) Director's cut Full Latino. Embarazada de su prometido, la actriz...

    Director: Takashi Shimizu

    Género: FULL 1080p Pesadas

    Actores: Teresa Palmer

  • The Grudge (2004) Director’s Cut Full Latino

    2004
    The Grudge (2004) Director’s Cut Full Latino

    0.0 1h 31m 2004

    Descargar gratis The Grudge (2004) Director's Cut Full Latino. La aparente normalidad de la fachada de...

    Director: Takashi Shimizu

    Género: FULL 1080p Pesadas

    Actores: Yuya Ozeki

Comentarios 9
  • Cristian Quinteros - 03 Agosto, 2017

    Esperando las 6 temporadas restantes xD

    • dpelis

      Administrador
      - 03 Agosto, 2017

      despues q haga prison y agene shield

  • Alexis - 04 Julio, 2017

    Buenas … van a colocar todos los links de google drive en todas las pelis y series restantes ? :3

    • dpelis

      Administrador
      - 04 Julio, 2017

      no

  • JUAN IGNACIO PEREZ - 03 Julio, 2017

    Muchas gracias Dpelis, la estaba esperando. Empezando a bajar.

    • dpelis

      Administrador
      - 04 Julio, 2017

      se viene prison break

  • Jonna - 03 Julio, 2017

    Tienen como proyecto subir todas las temporadas en la misma calidad o solamente esta? Saludos

    • dpelis

      Administrador
      - 04 Julio, 2017

      todas. en la misma. tabn prison break. ya se esta trabajando

      • Jonna - 04 Julio, 2017

        Wow! ya q nunca la he visto sería una gran oportunidad Gracias, esperando la primera