Los Expedientes Secretos X (1995) Temporada 3 Full 1080p Latino

577 vistas
1 estrella2 estrellas3 estrellas4 estrellas5 estrellas (1 votos, promedio: 5,00 de 5)
Cargando…

Información de Los Expedientes Secretos X (1995) Temporada 3 Full 1080p Latino

Datos de la película

  • Calidad: Full 1080p
  • Audio: Español Latino AC3 2.0 BLURAY - Ingles AC3 5.1 BLURAY
  • Subtitulos: Español Latino PGS - Ingles PGS
  • Resolución: 1920x1080p
  • Formato: MKV
  • Codec: H.264
  • Encoder: Dpelis
  • Mediainfo: Ver Ver
  • X-Files S03E01 Full 1080p Latino.mkv
    Format                      : Matroska
    Format version              : Version 4 / Version 2
    File size                   : 3.53 GiB
    Duration                    : 44mn 46s
    Overall bit rate            : 11.3 Mbps
    Encoded date                : UTC 2017-05-30 00:21:13 / UTC 2017-05-27T01:03:04Z
    Writing application         : mkvmerge v8.9.0 ('Father Daughter') 64bit
    Writing library             : libebml v1.3.3 + libmatroska v1.4.4 / Lavf57.7.2

    Video
    ID                          : 1
    Format                      : AVC
    Format/Info                 : Advanced Video Codec
    Format profile              : [email protected]
    Format settings, CABAC      : Yes
    Format settings, ReFrames   : 4 frames
    Codec ID                    : V_MPEG4/ISO/AVC
    Duration                    : 44mn 46s
    Bit rate                    : 10.4 Mbps
    Width                       : 1 920 pixels
    Height                      : 1 080 pixels
    Display aspect ratio        : 16:9
    Frame rate mode             : Constant
    Frame rate                  : 23.976 (24000/1001) fps
    Color space                 : YUV
    Chroma subsampling          : 4:2:0
    Bit depth                   : 8 bits
    Scan type                   : Progressive
    Bits/(Pixel*Frame)          : 0.209
    Stream size                 : 3.25 GiB (92%)
    Writing library             : x264 core 148 r2708 86b7198
    Encoding settings           : cabac=1 / ref=4 / deblock=1:0:0 / analyse=0x3:0x133 / me=esa / subme=9 / psy=1 / psy_rd=1.00:0.00 / mixed_ref=1 / me_range=16 / chroma_me=1 / trellis=2 / 8x8dct=1 / cqm=0 / deadzone=21,11 / fast_pskip=1 / chroma_qp_offset=-2 / threads=34 / lookahead_threads=2 / sliced_threads=0 / nr=0 / decimate=1 / interlaced=0 / bluray_compat=0 / constrained_intra=0 / bframes=3 / b_pyramid=2 / b_adapt=2 / b_bias=0 / direct=3 / weightb=1 / open_gop=0 / weightp=2 / keyint=240 / keyint_min=24 / scenecut=40 / intra_refresh=0 / rc_lookahead=60 / rc=crf / mbtree=1 / crf=20.0 / qcomp=0.60 / qpmin=0 / qpmax=69 / qpstep=4 / vbv_maxrate=62500 / vbv_bufsize=78125 / crf_max=0.0 / nal_hrd=none / filler=0 / ip_ratio=1.40 / aq=1:1.00
    Default                     : Yes
    Forced                      : No
    Color range                 : Limited
    Color primaries             : BT.709
    Transfer characteristics    : BT.709
    Matrix coefficients         : BT.709
    Statistics Tags Issue       : mkvmerge v8.9.0 ('Father Daughter') 64bit 2017-05-30 00:21:13 / mkvmerge v8.9.0 ('Father Daughter') 64bit 2017-05-30 00:21:13 / UTC 2017-05-27T01:03:04Z
    FromStats_BitRate           : 10602616
    FromStats_Duration          : 00:44:46.267000000
    FromStats_FrameCount        : 64406
    FromStats_StreamSize        : 3560182435

    Audio #1
    ID                          : 2
    Format                      : AC-3
    Format/Info                 : Audio Coding 3
    Format profile              : Dolby Digital
    Mode extension              : CM (complete main)
    Format settings, Endianness : Big
    Codec ID                    : A_AC3
    Duration                    : 44mn 46s
    Bit rate mode               : Constant
    Bit rate                    : 224 Kbps
    Channel(s)                  : 2 channels
    Channel positions           : Front: L R
    Sampling rate               : 48.0 KHz
    Frame rate                  : 31.250 fps (1536 spf)
    Compression mode            : Lossy
    Stream size                 : 71.7 MiB (2%)
    Title                       : Stereo
    Language                    : Spanish
    Default                     : Yes
    Forced                      : No
    Statistics Tags Issue       : mkvmerge v8.9.0 ('Father Daughter') 64bit 2017-05-30 00:21:13 / mkvmerge v8.9.0 ('Father Daughter') 64bit 2017-05-30 00:21:13 / UTC 2017-05-27T01:03:04Z
    FromStats_BitRate           : 224000
    FromStats_Duration          : 00:44:46.336000000
    FromStats_FrameCount        : 83948
    FromStats_StreamSize        : 75217408

    Audio #2
    ID                          : 3
    Format                      : AC-3
    Format/Info                 : Audio Coding 3
    Mode extension              : CM (complete main)
    Format settings, Endianness : Big
    Codec ID                    : A_AC3
    Duration                    : 44mn 46s
    Bit rate mode               : Constant
    Bit rate                    : 448 Kbps
    Channel(s)                  : 6 channels
    Channel positions           : Front: L C R, Side: L R, LFE
    Sampling rate               : 48.0 KHz
    Frame rate                  : 31.250 fps (1536 spf)
    Compression mode            : Lossy
    Stream size                 : 143 MiB (4%)
    Title                       : Surround
    Language                    : English
    Default                     : No
    Forced                      : No
    Statistics Tags Issue       : mkvmerge v8.9.0 ('Father Daughter') 64bit 2017-05-30 00:21:13 / mkvmerge v8.9.0 ('Father Daughter') 64bit 2017-05-30 00:21:13 / UTC 2017-05-27T01:03:04Z
    FromStats_BitRate           : 448000
    FromStats_Duration          : 00:44:46.336000000
    FromStats_FrameCount        : 83948
    FromStats_StreamSize        : 150434816

    Text #1
    ID                          : 4
    Format                      : PGS
    Muxing mode                 : zlib
    Codec ID                    : S_HDMV/PGS
    Codec ID/Info               : Picture based subtitle format used on BDs/HD-DVDs
    Language                    : Spanish
    Default                     : No
    Forced                      : No
    Statistics Tags Issue       : mkvmerge v8.9.0 ('Father Daughter') 64bit 2017-05-30 00:21:13 / mkvmerge v8.9.0 ('Father Daughter') 64bit 2017-05-30 00:21:13 / UTC 2017-05-27T01:03:04Z
    FromStats_BitRate           : 7915
    FromStats_Duration          : 00:44:27.165000000
    FromStats_FrameCount        : 664
    FromStats_StreamSize        : 2639098

    Text #2
    ID                          : 5
    Format                      : PGS
    Muxing mode                 : zlib
    Codec ID                    : S_HDMV/PGS
    Codec ID/Info               : Picture based subtitle format used on BDs/HD-DVDs
    Language                    : English
    Default                     : No
    Forced                      : No
    Statistics Tags Issue       : mkvmerge v8.9.0 ('Father Daughter') 64bit 2017-05-30 00:21:13 / mkvmerge v8.9.0 ('Father Daughter') 64bit 2017-05-30 00:21:13 / UTC 2017-05-27T01:03:04Z
    FromStats_BitRate           : 8450
    FromStats_Duration          : 00:44:26.872000000
    FromStats_FrameCount        : 684
    FromStats_StreamSize        : 2816964

  • Peso: 3.55 GB C/U 85 GB Total

Sinopsis

El primer episodio de la tercera temporada de The X-Files fue emitido en Estados Unidos el 22 de septiembre de 1995, y el último de esta temporada se emitió el 17 de mayo de 1996.

 

La carrera de nuestra heroína en el FBI está en peligro mientras Mulder sigue desaparecido y el Fumador busca los archivos perdidos. Los Navajos encuentran el cuerpo desvanecido de Mulder en una cueva y realizan una ceremonia ancestral para llamar al espíritu de vuelta. Dana encuentra en su cuerpo una extraña pieza de metal.

Ficha técnica

Imágenes, Capturas de la película

Video trailer de la película

Enlaces de descarga

Descargar Los Expedientes Secretos X (1995) Temporada 3 Full 1080p Latino
Descargar
Descargar

dpeliculas

Aportes de DPeliculasHDmega la pass es:dpeliculashdmega.org Aportes de CinemaniaHD la pass es:cinemaniahdd.com

PelícuDelas relacionadas

  • T2 Trainspotting (2017) Full 1080p Latino

    2017
    T2 Trainspotting (2017) Full 1080p Latino

    0.0 1h 57m 2017

    Han pasado 20 años desde que Mark Renton abandonara Escocia, y la heroína. Ahora, Renton vuelve a su...

    Director: Sylvia Parker

    Género: Crimen

    Actores: Tom Urie

  • Potosí (2013) WEBDL 1080p Latino

    2013
    Potosí (2013) WEBDL 1080p Latino

    0.0 0h 0m 2013

    Este largometraje con Alfredo Castruita en la dirección se estrenó en 2013 en festivales pero no ha...

    Director: Alfredo Castruita

    Género: Crimen

    Actores: Sonia Couoh

  • La casa de la esperanza (2017) Full 1080p Latino

    2017
    La casa de la esperanza (2017) Full 1080p Latino

    0.0 2h 4m 2017

    Descargar La casa de la esperanza  hd full 1080p latino, Cuando Alemania invadió Polonia, los bombarderos...

    Director: Niki Caro

    Género: Drama

    Actores: Val Maloku

  • T2 Trainspotting (2017) 1080p Latino

    2017
    T2 Trainspotting (2017) 1080p Latino

    5.0 1h 57m 2017

    Veinte años después, continúan las peripecias del grupo de ya no tan jóvenes heroinómanos de los...

    Director: Sylvia Parker

    Género: Crimen

    Actores: Tom Urie

  • T2 Trainspotting (2017) 720p Latino

    2017
    T2 Trainspotting (2017) 720p Latino

    0.0 1h 57m 2017

    Han pasado 20 años desde que Mark Renton abandonara Escocia, y la heroína. Ahora, Renton vuelve a su...

    Director: Sylvia Parker

    Género: Crimen

    Actores: Tom Urie

Comentarios 4
  • Jose - 20 Junio, 2017

    Muchas gracias por la sugerencia de usar premium 1ficihier. Compre una cuenta premium y he podido bajar esta 3ra temporada sin problemas. Espero puedan seguir subiendo las demas temporadas. Quedo muy agradecido.por todo el esfuerzo que hacen.

    • dpelis

      Administrador
      - 20 Junio, 2017

      ya se esta terminando de ripear la temporada 4, saludos

  • Jose - 12 Junio, 2017

    Una consulta.
    como puedo descargar de MEGAg usando Mipony?
    Los enlaces para esta 3ra temporada son de 8gb y con la limitacion actual de 5Gb me es imposible descargar ninguna de ellas. Muchas gracias.

    • dpelis

      Administrador
      - 13 Junio, 2017

      entiendo. pero al igual subir muchas partes seria muy tedioso. creo q tocara usar otro servidor.pude comprar 1fichier esta barato la membresia vip. saludos