Los descendientes 2 (2017) Webdl 1080p Latino

5.896 vistas
1 estrella2 estrellas3 estrellas4 estrellas5 estrellas (1 votos, promedio: 5,00 de 5)
Cargando…

Información de Los descendientes 2 (2017) Webdl 1080p Latino

Datos de la película

  • Calidad: WEBDL
  • Audio: Español Latino AC3 2.0 DVD - Ingles AC3 5.1 iTunes
  • Subtitulos: Español Latino SRT - Ingles SRT
  • Resolución: 1920x1080p
  • Formato: MKV
  • Codec: H.264
  • Encoder: Dpelis
  • Mediainfo: Ver Ver
  • Descendants.2.2017.1080p.Latino.mkv
    Format                      : Matroska
    Format version              : Version 4 / Version 2
    File size                   : 3.22 GiB
    Duration                    : 1 h 51 min
    Overall bit rate            : 4 127 kb/s
    Movie name                  : DPeliculasHDMega.ORG
    Encoded date                : UTC 2017-08-03 22:59:22 / UTC 2017-08-03T21:25:22Z
    Writing application         : mkvmerge v10.0.0 ('To Drown In You') 64bit
    Writing library             : libebml v1.3.4 + libmatroska v1.4.5 / Lavf57.7.2

    Video
    ID                          : 1
    Format                      : AVC
    Format/Info                 : Advanced Video Codec
    Format profile              : [email protected]
    Format settings, CABAC      : Yes
    Format settings, ReFrames   : 4 frames
    Codec ID                    : V_MPEG4/ISO/AVC
    Duration                    : 1 h 51 min
    Bit rate                    : 3 500 kb/s
    Width                       : 1 920 pixels
    Height                      : 1 080 pixels
    Display aspect ratio        : 16:9
    Frame rate mode             : Constant
    Frame rate                  : 23.976 (24000/1001) FPS
    Color space                 : YUV
    Chroma subsampling          : 4:2:0
    Bit depth                   : 8 bits
    Scan type                   : Progressive
    Bits/(Pixel*Frame)          : 0.070
    Stream size                 : 2.70 GiB (84%)
    Writing library             : x264 core 148 r2708 86b7198
    Encoding settings           : cabac=1 / ref=3 / deblock=1:0:0 / analyse=0x3:0x113 / me=hex / subme=7 / psy=1 / psy_rd=1.00:0.00 / mixed_ref=1 / me_range=16 / chroma_me=1 / trellis=1 / 8x8dct=1 / cqm=0 / deadzone=21,11 / fast_pskip=1 / chroma_qp_offset=-2 / threads=12 / lookahead_threads=2 / sliced_threads=0 / nr=0 / decimate=1 / interlaced=0 / bluray_compat=0 / constrained_intra=0 / bframes=3 / b_pyramid=2 / b_adapt=1 / b_bias=0 / direct=1 / weightb=1 / open_gop=0 / weightp=2 / keyint=240 / keyint_min=24 / scenecut=40 / intra_refresh=0 / rc_lookahead=40 / rc=abr / mbtree=1 / bitrate=3500 / ratetol=1.0 / qcomp=0.60 / qpmin=0 / qpmax=69 / qpstep=4 / vbv_maxrate=62500 / vbv_bufsize=78125 / nal_hrd=none / filler=0 / ip_ratio=1.40 / aq=1:1.00
    Default                     : Yes
    Forced                      : No
    Color range                 : Limited
    Color primaries             : BT.709
    Transfer characteristics    : BT.709
    Matrix coefficients         : BT.709
    Statistics Tags Issue       : mkvmerge v10.0.0 ('To Drown In You') 64bit 2017-08-03 22:59:22 / mkvmerge v10.0.0 ('To Drown In You') 64bit 2017-08-03 22:59:22 / UTC 2017-08-03T21:25:22Z
    FromStats_BitRate           : 3549357
    FromStats_Duration          : 01:51:34.855000000
    FromStats_FrameCount        : 160516
    FromStats_StreamSize        : 2970304003

    Audio #1
    ID                          : 2
    Format                      : AC-3
    Format/Info                 : Audio Coding 3
    Mode                        : Dolby Digital
    Format settings, Endianness : Big
    Codec ID                    : A_AC3
    Duration                    : 1 h 51 min
    Bit rate mode               : Constant
    Bit rate                    : 192 kb/s
    Channel(s)                  : 2 channels
    Channel positions           : Front: L R
    Sampling rate               : 48.0 kHz
    Frame rate                  : 31.250 FPS (1536 spf)
    Bit depth                   : 16 bits
    Compression mode            : Lossy
    Delay relative to video     : 2 s 295 ms
    Stream size                 : 153 MiB (5%)
    Language                    : Spanish
    Service kind                : Complete Main
    Default                     : Yes
    Forced                      : No
    Statistics Tags Issue       : mkvmerge v10.0.0 ('To Drown In You') 64bit 2017-08-03 22:59:22 / mkvmerge v10.0.0 ('To Drown In You') 64bit 2017-08-03 22:59:22 / UTC 2017-08-03T21:25:22Z
    FromStats_BitRate           : 192000
    FromStats_Duration          : 01:51:33.664000000
    FromStats_FrameCount        : 209177
    FromStats_StreamSize        : 160647936

    Audio #2
    ID                          : 3
    Format                      : AC-3
    Format/Info                 : Audio Coding 3
    Format settings, Endianness : Big
    Codec ID                    : A_AC3
    Duration                    : 1 h 51 min
    Bit rate mode               : Constant
    Bit rate                    : 384 kb/s
    Channel(s)                  : 6 channels
    Channel positions           : Front: L C R, Side: L R, LFE
    Sampling rate               : 48.0 kHz
    Frame rate                  : 31.250 FPS (1536 spf)
    Bit depth                   : 16 bits
    Compression mode            : Lossy
    Delay relative to video     : -5 ms
    Stream size                 : 307 MiB (9%)
    Title                       : Surround
    Language                    : English
    Service kind                : Complete Main
    Default                     : No
    Forced                      : No
    Statistics Tags Issue       : mkvmerge v10.0.0 ('To Drown In You') 64bit 2017-08-03 22:59:22 / mkvmerge v10.0.0 ('To Drown In You') 64bit 2017-08-03 22:59:22 / UTC 2017-08-03T21:25:22Z
    FromStats_BitRate           : 384000
    FromStats_Duration          : 01:51:34.784000000
    FromStats_FrameCount        : 209212
    FromStats_StreamSize        : 321349632

    Text
    ID                          : 4
    Format                      : UTF-8
    Codec ID                    : S_TEXT/UTF8
    Codec ID/Info               : UTF-8 Plain Text
    Language                    : English
    Default                     : Yes
    Forced                      : No
    Statistics Tags Issue       : mkvmerge v10.0.0 ('To Drown In You') 64bit 2017-08-03 22:59:22 / mkvmerge v10.0.0 ('To Drown In You') 64bit 2017-08-03 22:59:22 / UTC 2017-08-03T21:25:22Z
    FromStats_BitRate           : 67
    FromStats_Duration          : 01:51:30.454000000
    FromStats_FrameCount        : 1936
    FromStats_StreamSize        : 56703

  • Peso: 3.22 GB

Sinopsis

Descendants 2 hd (Los descendientes 2) es una película original de Disney Channel secuela del éxito musical de Los descendientes. Escrita por Josann McGibbon y Sara Parriott, autores del libreto de la primera parte, quienes también ejercen como productores ejecutivos, este telefilme sigue a los hijos de los principales villanos del universo Disney en su intento por hacer el bien en un mundo lleno de personajes malvados.

Tras sus aventuras en la primera película y el enfrentamiento con Meléfica, el grupo de jóvenes (Mal, hija de Maléfica; Evie, hija de la Reina Malvada; Carlos, hijo de Cruella de Vil, Jay, hijo de Jafar) se prepara para una nueva aventura en la que se cruzarán en el camino de Uma, la hija de la malvada Úrsula (de La Sirenita), además de encontrarse con el hijo del Capitán Garfio (Peter Pan) y el hijo de Gastón (La Bella y la Bestia).

La película está dirigida por irigida por Kenny Ortega (High School Musical) y protagonizada por Dove Cameron (Liv and Maddie), Sofia Carson (Canguros en apuros), Cameron Boyce (Jessie), Booboo Stewart (La Saga Crepúsculo: Eclipse) y China Anne McClain (A.N.T. Farm: Escuela de talentos), entre otros.

 

Descarga Subtitulos Latino + Forzados

Ficha técnica

Imágenes, Capturas de la película

Video trailer de la película

Enlaces de descarga

Descargar Los descendientes 2 (2017) Webdl 1080p Latino
Descargar

dpeliculas

Aportes de DPeliculasHDmega la pass es:dpeliculashdmega.org Aportes de CinemaniaHD la pass es:cinemaniahdd.com

PelícuDelas relacionadas

Comentarios 3
  • imbécil - 04 agosto, 2017

    es mi pelicula favorita

  • jose - 04 agosto, 2017

    saldra en caratula plateada??

    • dpelis

      Administrador
      - 04 agosto, 2017

      si sale BD si , por e momento hay WEBDL amazon