Logan (2017) 1080p BluRay x265 HEVC DTS Dual Latino

2.281 vistas
1 estrella2 estrellas3 estrellas4 estrellas5 estrellas (1 votos, promedio: 5,00 de 5)
Cargando…

Información de Logan (2017) 1080p BluRay x265 HEVC DTS Dual Latino

Datos de la película

  • Calidad: Full 1080p
  • Audio: Español Latino AC3 5.1 BLURAY - Ingles DTS 5.1 BLURAY
  • Subtitulos: Español Latino PGS
  • Resolución: 1920x1080p
  • Formato: MKV
  • Codec: H.265
  • Encoder: SebastianHDx
  • Mediainfo: Ver Ver
  • Logan (2017) 1080p BluRay x265 HEVC DTS Dual Latino.mkv
    Format                      : Matroska
    Format version              : Version 4 / Version 2
    File size                   : 3.90 GiB
    Duration                    : 2 h 17 min
    Overall bit rate            : 4 059 kb/s
    Encoded date                : UTC 2017-06-02 02:44:30
    Writing application         : mkvmerge v10.0.0 ('To Drown In You') 64bit
    Writing library             : libebml v1.3.4 + libmatroska v1.4.5

    Video
    ID                          : 1
    Format                      : HEVC
    Format/Info                 : High Efficiency Video Coding
    Format profile              : [email protected]@Main
    Codec ID                    : V_MPEGH/ISO/HEVC
    Duration                    : 2 h 17 min
    Bit rate                    : 2 077 kb/s
    Width                       : 1 920 pixels
    Height                      : 1 080 pixels
    Display aspect ratio        : 16:9
    Frame rate mode             : Constant
    Frame rate                  : 23.976 (24000/1001) FPS
    Color space                 : YUV
    Chroma subsampling          : 4:2:0
    Bit depth                   : 8 bits
    Bits/(Pixel*Frame)          : 0.042
    Stream size                 : 1.99 GiB (51%)
    Writing library             : x265 2.1:[Windows][GCC 5.3.1][64 bit] 8bit
    Encoding settings           : wpp / ctu=64 / min-cu-size=8 / max-tu-size=32 / tu-intra-depth=1 / tu-inter-depth=1 / me=3 / subme=3 / merange=57 / rect / no-amp / max-merge=3 / temporal-mvp / no-early-skip / rskip / rdpenalty=0 / no-tskip / no-tskip-fast / strong-intra-smoothing / no-lossless / no-cu-lossless / no-constrained-intra / no-fast-intra / open-gop / no-temporal-layers / interlace=0 / keyint=240 / min-keyint=24 / scenecut=40 / rc-lookahead=25 / lookahead-slices=4 / bframes=4 / bframe-bias=0 / b-adapt=2 / ref=4 / limit-refs=3 / limit-modes / weightp / no-weightb / aq-mode=1 / qg-size=32 / aq-strength=1.00 / cbqpoffs=0 / crqpoffs=0 / rd=4 / psy-rd=2.00 / rdoq-level=2 / psy-rdoq=1.00 / log2-max-poc-lsb=8 / no-rd-refine / signhide / deblock=0:0 / sao / no-sao-non-deblock / b-pyramid / cutree / no-intra-refresh / rc=crf / crf=20.0 / qcomp=0.60 / qpmin=0 / qpmax=69 / qpstep=4 / ipratio=1.40 / pbratio=1.30
    Default                     : Yes
    Forced                      : No
    Color range                 : Limited
    Color primaries             : BT.709
    Transfer characteristics    : BT.709
    Matrix coefficients         : BT.709

    Audio #1
    ID                          : 2
    Format                      : AC-3
    Format/Info                 : Audio Coding 3
    Format settings, Endianness : Big
    Codec ID                    : A_AC3
    Duration                    : 2 h 17 min
    Bit rate mode               : Constant
    Bit rate                    : 448 kb/s
    Channel(s)                  : 6 channels
    Channel positions           : Front: L C R, Side: L R, LFE
    Sampling rate               : 48.0 kHz
    Frame rate                  : 31.250 FPS (1536 spf)
    Bit depth                   : 16 bits
    Compression mode            : Lossy
    Stream size                 : 440 MiB (11%)
    Title                       : Español Latino AC3 5.1 [448 Kbps]
    Language                    : Spanish
    Service kind                : Complete Main
    Default                     : Yes
    Forced                      : No

    Audio #2
    ID                          : 3
    Format                      : DTS
    Format/Info                 : Digital Theater Systems
    Mode                        : 16
    Format settings, Endianness : Big
    Codec ID                    : A_DTS
    Duration                    : 2 h 17 min
    Bit rate mode               : Constant
    Bit rate                    : 1 509 kb/s
    Channel(s)                  : 6 channels
    Channel positions           : Front: L C R, Side: L R, LFE
    Sampling rate               : 48.0 kHz
    Frame rate                  : 93.750 FPS (512 spf)
    Bit depth                   : 24 bits
    Compression mode            : Lossy
    Stream size                 : 1.45 GiB (37%)
    Title                       : Inglés DTS 5.1 [1509 Kbps]
    Language                    : English
    Default                     : No
    Forced                      : No

    Text
    ID                          : 4
    Format                      : PGS
    Codec ID                    : S_HDMV/PGS
    Codec ID/Info               : Picture based subtitle format used on BDs/HD-DVDs
    Duration                    : 2 h 16 min
    Bit rate                    : 23.2 kb/s
    Count of elements           : 2752
    Stream size                 : 22.6 MiB (1%)
    Title                       : Subtítulos Español Latino [PGS]
    Language                    : Spanish
    Default                     : No
    Forced                      : No

    Menu
    00:00:00.000                : :Chapter 1
    00:05:35.126                : :Chapter 2
    00:09:18.558                : :Chapter 3
    00:11:41.159                : :Chapter 4
    00:16:23.232                : :Chapter 5
    00:20:11.669                : :Chapter 6
    00:24:26.715                : :Chapter 7
    00:26:11.904                : :Chapter 8
    00:30:13.312                : :Chapter 9
    00:31:59.126                : :Chapter 10
    00:34:56.886                : :Chapter 11
    00:39:53.433                : :Chapter 12
    00:42:55.573                : :Chapter 13
    00:45:03.826                : :Chapter 14
    00:47:53.412                : :Chapter 15
    00:49:39.560                : :Chapter 16
    00:52:14.423                : :Chapter 17
    00:54:30.517                : :Chapter 18
    00:57:44.211                : :Chapter 19
    01:00:10.398                : :Chapter 20
    01:03:53.830                : :Chapter 21
    01:06:55.512                : :Chapter 22
    01:09:54.774                : :Chapter 23
    01:13:15.892                : :Chapter 24
    01:18:43.594                : :Chapter 25
    01:21:50.906                : :Chapter 26
    01:25:52.189                : :Chapter 27
    01:28:38.814                : :Chapter 28
    01:32:41.431                : :Chapter 29
    01:35:29.724                : :Chapter 30
    01:41:03.432                : :Chapter 31
    01:43:39.880                : :Chapter 32
    01:49:38.989                : :Chapter 33
    01:54:20.562                : :Chapter 34
    01:57:00.430                : :Chapter 35
    01:59:20.403                : :Chapter 36
    02:01:14.434                : :Chapter 37
    02:05:09.627                : :Chapter 38
    02:06:40.551                : :Chapter 39
    02:11:07.860                : :Chapter 40

  • Peso: 3.90 GB

Sinopsis

Sin sus poderes, por primera vez, Wolverine es verdaderamente vulnerable. Después de una vida de dolor y angustia, sin rumbo y perdido en el mundo donde los X-Men son leyenda, su mentor Charles Xavier lo convence de asumir una última misión: proteger a una joven que será la única esperanza para la raza mutante. Tercera y última película protagonizada por Hugh Jackman en el papel de Lobezno.

Ficha técnica

Imágenes, Capturas de la película

Video trailer de la película

Enlaces de descarga

Descargar
Descargar Logan (2017) 1080p BluRay x265 HEVC DTS Dual Latino

dpeliculas

Aportes de DPeliculasHDmega la pass es:dpeliculashdmega.org Aportes de CinemaniaHD la pass es:cinemaniahdd.com

PelícuDelas relacionadas

  • Poesía sin fin (2016) Full Latino

    2016
    Poesía sin fin (2016) Full Latino

    0.0 0h 0m 2016

    Descargar gratis Poesía sin fin (2016) Full Latino. A traves de la lente autobiográfica de Alejandro...

    Director: Alejandro Jodorowsky

    Género: Drama

    Actores: Pamela Flores

  • El fugitivo (1993) Full 1080p Latino

    1993
    El fugitivo (1993) Full 1080p Latino

    5.0 2h 13m 1993

    El doctor Richard Kimble es un prestigioso cirujano de Chicago con una vida prácticamente perfecta:...

    Director: Andrew Davis

    Género: Acción

    Actores: Turk Muller

  • El último virrey de la India (2017) 1080p Latino

    2017
    El último virrey de la India (2017) 1080p Latino

    0.0 1h 47m 2017

    En 1947, Lord Mountbatten (Hugh Bonneville), el bisnieto de la reina Victoria, asume su posición como...

    Director: San Davey

    Género: Drama

    Actores: Trishaan

Comentarios 5
  • Rafael - 04 junio, 2017

    Hola oye creo que los links de mega estan caidos no me los abre el MegaDownloader

    • dpelis

      Administrador
      - 04 junio, 2017

      no estan caidos. el problema q mega ahor puso limite

  • Arnoldo - 03 junio, 2017

    Cual es la diferencia con la NOIR edition?

    • dpelis

      Administrador
      - 04 junio, 2017

      blanco y negro

  • leonidas - 02 junio, 2017

    Gracias por el aporte, y los aportes en h265