Lo que nunca nos dijimos (2015) WEBDL Latino

738 vistas
1 estrella2 estrellas3 estrellas4 estrellas5 estrellas (Ninguna valoración todavía)
Cargando…

Información de Lo que nunca nos dijimos (2015) WEBDL Latino

Lo que nunca nos dijimos

Datos de la película

  • Calidad: WEBDL
  • Audio: Español Latino AC3 2.0 iTunes
  • Subtitulos: No
  • Resolución: 1912x1008p
  • Formato: MKV
  • Codec: H.264
  • Encoder: Dpelis
  • Mediainfo: Ver Ver
  • Lo Que Nunca Nos Dijimos 2015 WEBDL Latino.mkv
    Format                      : Matroska
    Format version              : Version 4 / Version 2
    File size                   : 3.51 GiB
    Duration                    : 1 h 31 min
    Overall bit rate            : 5 462 kb/s
    Movie name                  : DPeliculasHDMega.ORG
    Encoded date                : UTC 2017-05-25 19:19:38
    Writing application         : mkvmerge v10.0.0 ('To Drown In You') 64bit
    Writing library             : libebml v1.3.4 + libmatroska v1.4.5

    Video
    ID                          : 1
    Format                      : AVC
    Format/Info                 : Advanced Video Codec
    Format profile              : [email protected]
    Format settings, CABAC      : Yes
    Format settings, ReFrames   : 4 frames
    Codec ID                    : V_MPEG4/ISO/AVC
    Duration                    : 1 h 31 min
    Bit rate                    : 5 236 kb/s
    Width                       : 1 912 pixels
    Height                      : 1 008 pixels
    Display aspect ratio        : 1.897
    Frame rate mode             : Constant
    Frame rate                  : 24.000 FPS
    Color space                 : YUV
    Chroma subsampling          : 4:2:0
    Bit depth                   : 8 bits
    Scan type                   : Progressive
    Bits/(Pixel*Frame)          : 0.113
    Stream size                 : 3.36 GiB (96%)
    Language                    : English
    Default                     : Yes
    Forced                      : No
    Color range                 : Limited
    Color primaries             : BT.709
    Transfer characteristics    : BT.709
    Matrix coefficients         : BT.709

    Audio
    ID                          : 2
    Format                      : AC-3
    Format/Info                 : Audio Coding 3
    Format settings, Endianness : Big
    Codec ID                    : A_AC3
    Duration                    : 1 h 31 min
    Bit rate mode               : Constant
    Bit rate                    : 224 kb/s
    Channel(s)                  : 2 channels
    Channel positions           : Front: L R
    Sampling rate               : 48.0 kHz
    Frame rate                  : 31.250 FPS (1536 spf)
    Bit depth                   : 16 bits
    Compression mode            : Lossy
    Stream size                 : 147 MiB (4%)
    Service kind                : Complete Main
    Default                     : Yes
    Forced                      : No

    Text
    ID                          : 3
    Format                      : UTF-8
    Codec ID                    : S_TEXT/UTF8
    Codec ID/Info               : UTF-8 Plain Text
    Duration                    : 10 s 100 ms
    Bit rate                    : 91 b/s
    Count of elements           : 1
    Stream size                 : 115 Bytes (0%)
    Language                    : Spanish
    Default                     : Yes
    Forced                      : No

    Menu
    00:00:00.000                : en:Capítulo 1
    00:15:00.708                : en:Capítulo 2
    00:33:38.958                : en:Capítulo 3
    00:46:18.416                : en:Capítulo 4
    00:59:07.999                : en:Capítulo 5
    01:14:53.748                : en:Capítulo 6

  • Peso: 3.51 GB

Sinopsis

Historia íntima de una pequeña familia, protagonizada por Marian, hija única del Dr. y la Sra. Di Mateo, quien después de varios años de vivir en México regresa a su ciudad natal Mendoza, porque su padre está muriendo; Aunque la verdadera intención de su regreso es decir lo que fue sellado por el silencio de lo tácito en una familia ejemplar como la que su madre afirma sostener

Ficha técnica

  • Titulo original: Lo que nunca nos dijimos
  • Fecha de lanzamiento: 03-11-2015 (Argentina, Mexico)
  • Director: Sebastián Sánchez Amunátegui
  • Género: Drama
  • Puntuación: 0.0 0 votos
  • Duración:
    1h 31m

Imágenes, Capturas de la película

Video trailer de la película

Enlaces de descarga

Descargar
Descargar Lo que nunca nos dijimos (2015) WEBDL Latino

dpeliculas

Aportes de DPeliculasHDmega la pass es:dpeliculashdmega.org Aportes de CinemaniaHD la pass es:cinemaniahdd.com
Guardado en : Drama

PelícuDelas relacionadas

  • The Resurrection of Gavin Stone (2017) 1080p Latino

    2017
    The Resurrection of Gavin Stone (2017) 1080p Latino

    0.0 1 h 31 min 2017

    Una antigua estrella infantil se ve obligada a prestar un servicio comunitario en una gran iglesia de...

    Director: Dallas Jenkins

    Género: Comedia

    Actores: Tim Frank

  • Secuestrado (2017) 1080p Latino

    2017
    Secuestrado (2017) 1080p Latino

    0.0 1h 34m 2017

    Una madre no se detendrá ante nada para intentar recuperar a su hijo cuando este es secuestrado delante...

    Director: Nicole Garcea

    Género: Drama

    Actores: Timothy Fannon

  • The Phenom (2016) 1080p Latino

    2016
    The Phenom (2016) 1080p Latino

    0.0 1 h 27 min 2016

    Noah Buschel (Glass Chin) escribe y dirige este drama deportivo sobre un joven atleta tan torturado por...

    Director: Noah Buschel

    Género: Drama

    Actores: Yul Vazquez

  • The Good Catholic (2017) Full 1080p Latino

    2017
    The Good Catholic (2017) Full 1080p Latino

    0.0 1 h 37 min 2017

    Daniel amaba su trabajo como sacerdote de un pequeño pueblo más que nada. Entonces conoció a Jane....

    Director: Paul Shoulberg

    Género: Comedia

    Actores: Zachary Spicer

Comentarios 0