Llega de noche (2017) WEBDL 1080p Sub Latino

1.315 vistas
1 estrella2 estrellas3 estrellas4 estrellas5 estrellas (1 votos, promedio: 1,00 de 5)
Cargando…

Información de Llega de noche (2017) WEBDL 1080p Sub Latino

Datos de la película

  • Calidad:
  • Audio: Ingles AC3 5.1 iTunes
  • Subtitulos: Español Latino SRT
  • Resolución: 1920x800p
  • Formato:
  • Codec: H.264
  • Encoder: Dpelis
  • Mediainfo: Ver Ver
  • It Comes at Night (2017) 1080p WEB-DL Sub Latino.mkv
    Format                      : Matroska
    Format version              : Version 4 / Version 2
    File size                   : 3.16 GiB
    Duration                    : 1 h 31 min
    Overall bit rate            : 4 929 kb/s
    Movie name                  : DPeliculasHDMega.ORG
    Encoded date                : UTC 2017-08-29 20:51:57
    Writing application         : mkvmerge v10.0.0 ('To Drown In You') 64bit
    Writing library             : libebml v1.3.4 + libmatroska v1.4.5
    Cover                       : Yes
    Attachments                 : cover_land.jpg / small_cover.jpg / small_cover_land.jpg / cover.jpg

    Video
    ID                          : 1
    Format                      : AVC
    Format/Info                 : Advanced Video Codec
    Format profile              : H[email protected]
    Format settings, CABAC      : Yes
    Format settings, ReFrames   : 5 frames
    Codec ID                    : V_MPEG4/ISO/AVC
    Duration                    : 1 h 31 min
    Bit rate                    : 4 543 kb/s
    Width                       : 1 920 pixels
    Height                      : 800 pixels
    Display aspect ratio        : 2.40:1
    Frame rate mode             : Constant
    Frame rate                  : 23.976 (23976/1000) FPS
    Color space                 : YUV
    Chroma subsampling          : 4:2:0
    Bit depth                   : 8 bits
    Scan type                   : Progressive
    Bits/(Pixel*Frame)          : 0.123
    Stream size                 : 2.91 GiB (92%)
    Language                    : English
    Default                     : Yes
    Forced                      : No
    Color range                 : Limited
    Color primaries             : BT.709
    Transfer characteristics    : BT.709
    Matrix coefficients         : BT.709

    Audio
    ID                          : 2
    Format                      : AC-3
    Format/Info                 : Audio Coding 3
    Format settings, Endianness : Big
    Codec ID                    : A_AC3
    Duration                    : 1 h 31 min
    Bit rate mode               : Constant
    Bit rate                    : 384 kb/s
    Channel(s)                  : 6 channels
    Channel positions           : Front: L C R, Side: L R, LFE
    Sampling rate               : 48.0 kHz
    Frame rate                  : 31.250 FPS (1536 spf)
    Bit depth                   : 16 bits
    Compression mode            : Lossy
    Delay relative to video     : -42 ms
    Stream size                 : 252 MiB (8%)
    Language                    : English
    Service kind                : Complete Main
    Default                     : Yes
    Forced                      : No

    Text
    ID                          : 3
    Format                      : UTF-8
    Codec ID                    : S_TEXT/UTF8
    Codec ID/Info               : UTF-8 Plain Text
    Duration                    : 1 h 28 min
    Bit rate                    : 39 b/s
    Count of elements           : 959
    Stream size                 : 25.2 KiB (0%)
    Language                    : Spanish
    Default                     : Yes
    Forced                      : No

    Menu
    00:00:00.000                : en:1
    00:08:47.000                : en:2
    00:16:33.000                : en:3
    00:24:40.000                : en:4
    00:33:37.000                : en:5
    00:40:36.000                : en:6
    00:48:10.000                : en:7
    00:56:27.000                : en:8
    01:04:21.000                : en:9
    01:11:29.000                : en:10
    01:19:57.000                : en:11
    01:28:07.000                : en:12

  • Peso: 3.16 GB

Sinopsis

Protegido en un hogar seguro ante un peligro sobrenatural que aterroriza al mundo, un hombre ha establecido un frágil orden doméstico con su mujer y su hijo. Pero todo se tambalea ante la llegada de una joven familia desesperada en busca de refugio.

Ficha técnica

  • Titulo original: It Comes at Night
  • Fecha de lanzamiento: 09-06-2017 (United States of America)
  • Director: Trey Edward Shults
  • Género: Suspense, Terror
  • Puntuación: 1.0 1 votos
  • Duración:
    1h 32m

Imágenes, Capturas de la película

Video trailer de la película

Enlaces de descarga

Descargar Llega de noche (2017) WEBDL 1080p Sub Latino
Descargar

dpeliculas

Aportes de DPeliculasHDmega la pass es:dpeliculashdmega.org Aportes de CinemaniaHD la pass es:cinemaniahdd.com
Guardado en : Suspense , Terror

PelícuDelas relacionadas

  • El fugitivo (1993) Full 1080p Latino

    1993
    El fugitivo (1993) Full 1080p Latino

    5.0 2h 13m 1993

    El doctor Richard Kimble es un prestigioso cirujano de Chicago con una vida prácticamente perfecta:...

    Director: Andrew Davis

    Género: Acción

    Actores: Turk Muller

  • Tunnel (2016) 1080p Latino

    2016
    Tunnel (2016) 1080p Latino

    0.0 2h 6m 2016

    Jung-soo se dirige a casa con satisfacción, tras una provechosa jornada de trabajo. Sin embargo, el...

    Director: Kim Seong-hoon

    Género: Drama

    Actores: Park Hyuk-kwon

  • El silencio de los corderos (1991) Full 1080p Latino

    1991
    El silencio de los corderos (1991) Full 1080p Latino

    5.0 1h 58m 1991

    El FBI busca a "Buffalo Bill", un asesino en serie que mata a sus víctimas, todas adolescentes, después...

    Director: Ronald M. Bozman

    Género: Crimen

    Actores: Tracey Walter

  • El imperio de las sombras (2016) 1080p Latino

    2016
    El imperio de las sombras (2016) 1080p Latino

    0.0 2h 20m 2016

    Finales de los años 20, durante la ocupación japonesa de Corea. Un grupo de la resistencia intenta...

    Director: Kim Jee-woon

    Género: Acción

    Actores: Um Tae-goo

Comentarios 0