Life (2017) 1080p Latino

4.187 vistas
1 estrella2 estrellas3 estrellas4 estrellas5 estrellas (Ninguna valoración todavía)
Cargando…

Información de Life (2017) 1080p Latino

Datos de la película

  • Calidad: 1080p
  • Audio: Español Latino AC3 5.1 DVD - Ingles AC3 5.1 BLURAY
  • Subtitulos: Español Latino SRT - Ingles SRT
  • Resolución: 1920x800p
  • Formato: MKV
  • Codec: H.264
  • Encoder: Dpelis
  • Mediainfo: Ver Ver
  •  

    Life.2017.1080p.LATINO.mkv
    Format                      : Matroska
    Format version              : Version 4 / Version 2
    File size                   : 3.01 GiB
    Duration                    : 1 h 43 min
    Overall bit rate            : 4 145 kb/s
    Movie name                  : DPeliculasHDMega.ORG
    Encoded date                : UTC 2017-06-08 20:29:47 / UTC 2017-06-08T19:25:07Z
    Writing application         : mkvmerge v10.0.0 ('To Drown In You') 64bit
    Writing library             : libebml v1.3.4 + libmatroska v1.4.5 / Lavf57.7.2

    Video
    ID                          : 1
    Format                      : AVC
    Format/Info                 : Advanced Video Codec
    Format profile              : [email protected]
    Format settings, CABAC      : Yes
    Format settings, ReFrames   : 4 frames
    Codec ID                    : V_MPEG4/ISO/AVC
    Duration                    : 1 h 43 min
    Bit rate                    : 3 294 kb/s
    Nominal bit rate            : 3 500 kb/s
    Width                       : 1 920 pixels
    Height                      : 804 pixels
    Display aspect ratio        : 2.40:1
    Frame rate mode             : Constant
    Frame rate                  : 23.976 (24000/1001) FPS
    Color space                 : YUV
    Chroma subsampling          : 4:2:0
    Bit depth                   : 8 bits
    Scan type                   : Progressive
    Bits/(Pixel*Frame)          : 0.089
    Stream size                 : 2.39 GiB (79%)
    Writing library             : x264 core 148 r2708 86b7198
    Encoding settings           : cabac=1 / ref=3 / deblock=1:0:0 / analyse=0x3:0x113 / me=hex / subme=7 / psy=1 / psy_rd=1.00:0.00 / mixed_ref=1 / me_range=16 / chroma_me=1 / trellis=1 / 8x8dct=1 / cqm=0 / deadzone=21,11 / fast_pskip=1 / chroma_qp_offset=-2 / threads=12 / lookahead_threads=2 / sliced_threads=0 / nr=0 / decimate=1 / interlaced=0 / bluray_compat=0 / constrained_intra=0 / bframes=3 / b_pyramid=2 / b_adapt=1 / b_bias=0 / direct=1 / weightb=1 / open_gop=0 / weightp=2 / keyint=240 / keyint_min=24 / scenecut=40 / intra_refresh=0 / rc_lookahead=40 / rc=abr / mbtree=1 / bitrate=3500 / ratetol=1.0 / qcomp=0.60 / qpmin=0 / qpmax=69 / qpstep=4 / vbv_maxrate=62500 / vbv_bufsize=78125 / nal_hrd=none / filler=0 / ip_ratio=1.40 / aq=1:1.00
    Default                     : Yes
    Forced                      : No
    Color range                 : Limited
    Color primaries             : BT.709
    Transfer characteristics    : BT.709
    Matrix coefficients         : BT.709
    Statistics Tags Issue       : mkvmerge v10.0.0 ('To Drown In You') 64bit 2017-06-08 20:29:47 / mkvmerge v10.0.0 ('To Drown In You') 64bit 2017-06-08 20:29:47 / UTC 2017-06-08T19:25:07Z
    FromStats_BitRate           : 3374363
    FromStats_Duration          : 01:43:58.232000000
    FromStats_FrameCount        : 149568
    FromStats_StreamSize        : 2631258002

    Audio #1
    ID                          : 2
    Format                      : AC-3
    Format/Info                 : Audio Coding 3
    Format settings, Endianness : Big
    Codec ID                    : A_AC3
    Duration                    : 1 h 43 min
    Bit rate mode               : Constant
    Bit rate                    : 384 kb/s
    Channel(s)                  : 6 channels
    Channel positions           : Front: L C R, Side: L R, LFE
    Sampling rate               : 48.0 kHz
    Frame rate                  : 31.250 FPS (1536 spf)
    Bit depth                   : 16 bits
    Compression mode            : Lossy
    Delay relative to video     : -5 ms
    Stream size                 : 286 MiB (9%)
    Language                    : Spanish
    Service kind                : Complete Main
    Default                     : Yes
    Forced                      : No
    Statistics Tags Issue       : mkvmerge v10.0.0 ('To Drown In You') 64bit 2017-06-08 20:29:47 / mkvmerge v10.0.0 ('To Drown In You') 64bit 2017-06-08 20:29:47 / UTC 2017-06-08T19:25:07Z
    FromStats_BitRate           : 384000
    FromStats_Duration          : 01:43:58.336000000
    FromStats_FrameCount        : 194948
    FromStats_StreamSize        : 299440128

    Audio #2
    ID                          : 3
    Format                      : AC-3
    Format/Info                 : Audio Coding 3
    Format settings, Endianness : Big
    Codec ID                    : A_AC3
    Duration                    : 1 h 43 min
    Bit rate mode               : Constant
    Bit rate                    : 384 kb/s
    Channel(s)                  : 6 channels
    Channel positions           : Front: L C R, Side: L R, LFE
    Sampling rate               : 48.0 kHz
    Frame rate                  : 31.250 FPS (1536 spf)
    Bit depth                   : 16 bits
    Compression mode            : Lossy
    Delay relative to video     : -5 ms
    Stream size                 : 286 MiB (9%)
    Title                       : Surround
    Language                    : English
    Service kind                : Complete Main
    Default                     : No
    Forced                      : No
    Statistics Tags Issue       : mkvmerge v10.0.0 ('To Drown In You') 64bit 2017-06-08 20:29:47 / mkvmerge v10.0.0 ('To Drown In You') 64bit 2017-06-08 20:29:47 / UTC 2017-06-08T19:25:07Z
    FromStats_BitRate           : 384000
    FromStats_Duration          : 01:43:58.208000000
    FromStats_FrameCount        : 194944
    FromStats_StreamSize        : 299433984

    Text #1
    ID                          : 4
    Format                      : UTF-8
    Codec ID                    : S_TEXT/UTF8
    Codec ID/Info               : UTF-8 Plain Text
    Language                    : Spanish
    Default                     : Yes
    Forced                      : No
    Statistics Tags Issue       : mkvmerge v10.0.0 ('To Drown In You') 64bit 2017-06-08 20:29:47 / mkvmerge v10.0.0 ('To Drown In You') 64bit 2017-06-08 20:29:47 / UTC 2017-06-08T19:25:07Z
    FromStats_BitRate           : 42
    FromStats_Duration          : 01:33:32.739000000
    FromStats_FrameCount        : 970
    FromStats_StreamSize        : 29956

    Text #2
    ID                          : 5
    Format                      : UTF-8
    Codec ID                    : S_TEXT/UTF8
    Codec ID/Info               : UTF-8 Plain Text
    Title                       : FORZADOS
    Language                    : Spanish
    Default                     : No
    Forced                      : No
    Statistics Tags Issue       : mkvmerge v10.0.0 ('To Drown In You') 64bit 2017-06-08 20:29:47 / mkvmerge v10.0.0 ('To Drown In You') 64bit 2017-06-08 20:29:47 / UTC 2017-06-08T19:25:07Z
    FromStats_BitRate           : 1
    FromStats_Duration          : 01:33:32.737000000
    FromStats_FrameCount        : 30
    FromStats_StreamSize        : 718

    Text #3
    ID                          : 6
    Format                      : UTF-8
    Codec ID                    : S_TEXT/UTF8
    Codec ID/Info               : UTF-8 Plain Text
    Language                    : English
    Default                     : No
    Forced                      : No
    Statistics Tags Issue       : mkvmerge v10.0.0 ('To Drown In You') 64bit 2017-06-08 20:29:47 / mkvmerge v10.0.0 ('To Drown In You') 64bit 2017-06-08 20:29:47 / UTC 2017-06-08T19:25:07Z
    FromStats_BitRate           : 46
    FromStats_Duration          : 01:31:00.824000000
    FromStats_FrameCount        : 1101
    FromStats_StreamSize        : 31909

    Menu
    00:00:00.000                : :00:00:00.000
    00:09:32.864                : :00:09:32.864
    00:13:13.084                : :00:13:13.084
    00:15:36.894                : :00:15:36.894
    00:19:35.341                : :00:19:35.341
    00:24:57.454                : :00:24:57.454
    00:34:37.075                : :00:34:36.992
    00:40:45.276                : :00:40:45.109
    00:43:59.303                : :00:43:59.303
    00:52:21.805                : :00:52:21.805
    00:58:34.052                : :00:58:33.927
    01:06:37.785                : :01:06:37.785
    01:11:43.341                : :01:11:43.257
    01:17:50.875                : :01:17:50.875
    01:22:39.621                : :01:22:39.621
    01:28:34.309                : :01:28:34.309

     

  • Peso: 3.01 GB

Sinopsis

Roy Adams (Ryan Reynolds), David Jordan (Jake Gyllenhaal) y la tripulación de la Estación Espacial Internacional viajan a Marte con el objetivo de comprobar si las muestras recogidas en el planeta rojo presentan indicios de vida inteligente. Cuando uno de los científicos a bordo examina la única célula encontrada, todo el equipo presencia un hecho insólito: la prueba incuestionable de que hay vida extraterrestre.

Ante su asombro, deciden examinar y establecer el primer contacto con el organismo alienígena. Desgraciadamente, el grupo de astronautas descubrirá demasiado tarde que esta forma de vida es más inteligente de lo que esperaban, hasta tal punto que sus vidas podrían estar en grave peligro. Si ese ente microscópico llega a la Tierra podría poner en peligro toda existencia humana. ¿Cuál es exactamente la amenaza a la que se enfrentan? ¿Cómo le harán frente?

Ficha técnica

Imágenes, Capturas de la película

Video trailer de la película

Enlaces de descarga

Descargar Life (2017) 1080p Latino
Descargar
Descargar Life (2017) 1080p Latino

dpeliculas

Aportes de DPeliculasHDmega la pass es:dpeliculashdmega.org Aportes de CinemaniaHD la pass es:cinemaniahdd.com
Guardado en : Ciencia ficción , Suspense , Terror

PelícuDelas relacionadas

  • La momia (2017) Webdl 1080p Latino

    2017
    La momia (2017) Webdl 1080p Latino

    4.0 1h 50m 2017

    Descargar La momia 2017 1080p webdl  Latino, esta pelicula estara disponible con audio latino final...

    Director: Jo Beckett

    Género: Acción

    Actores: Vera Chok

  • Snowden (2016) 1080p Latino

    2016
    Snowden (2016) 1080p Latino

    0.0 2h 15m 2016

    Basada en el libro "The Snowden files. The inside story of the world's most wanted man" escrito por Luke...

    Director: Oliver Stone

    Género: Drama

    Actores: Zachary Quinto

  • Hide and Seek (2016) WEBDL 1080p Latino

    2016
    Hide and Seek (2016) WEBDL 1080p Latino

    0.0 1h 41m 2016

    Un hombre vive en un hermoso apartamento con su esposa y 2 hijos. Está obsesionado con la limpieza,...

    Director: Liu Jie

    Género: Misterio

    Actores: Wallace Huo

Comentarios 2
  • seba - 06 Junio, 2017

    cuándo saldra en carátula gris ???

    • dpelis

      Administrador
      - 06 Junio, 2017

      este mes estimado no tengo fecha