Lego Scooby-Doo! (2017) Full 1080p Latino

388 vistas
1 estrella2 estrellas3 estrellas4 estrellas5 estrellas (Ninguna valoración todavía)
Cargando…

Información de Lego Scooby-Doo! (2017) Full 1080p Latino

Datos de la película

  • Calidad: Full 1080p
  • Audio: Español Latino AC3 5.1 BLURAY - Ingles DTS 5.1 BLURAY
  • Subtitulos: Español Latino PGS - Ingles PGS
  • Resolución: 1920x1080p
  • Formato: MKV
  • Codec: H.264
  • Encoder: Dpelis
  • Mediainfo: Ver Ver
  • Lego Scooby Doo Blowout Beach (2017) FULL HD Latino-Ingles.mkv
    Format                      : Matroska
    Format version              : Version 4 / Version 2
    File size                   : 2.98 GiB
    Duration                    : 1 h 16 min
    Overall bit rate            : 5 539 kb/s
    Encoded date                : UTC 2017-07-19T01:37:52Z
    Writing application         : HandBrake 1.0.7 2017040900
    Writing library             : Lavf57.7.2

    Video
    ID                          : 1
    Format                      : AVC
    Format/Info                 : Advanced Video Codec
    Format profile              : [email protected]
    Format settings, CABAC      : Yes
    Format settings, ReFrames   : 4 frames
    Codec ID                    : V_MPEG4/ISO/AVC
    Duration                    : 1 h 16 min
    Bit rate                    : 3 280 kb/s
    Width                       : 1 920 pixels
    Height                      : 1 080 pixels
    Display aspect ratio        : 16:9
    Frame rate mode             : Constant
    Frame rate                  : 23.976 (24000/1001) FPS
    Color space                 : YUV
    Chroma subsampling          : 4:2:0
    Bit depth                   : 8 bits
    Scan type                   : Progressive
    Bits/(Pixel*Frame)          : 0.066
    Stream size                 : 1.76 GiB (59%)
    Writing library             : x264 core 148 r2708 86b7198
    Encoding settings           : cabac=1 / ref=4 / deblock=1:0:0 / analyse=0x3:0x133 / me=esa / subme=10 / psy=1 / psy_rd=1.00:0.00 / mixed_ref=1 / me_range=24 / chroma_me=1 / trellis=2 / 8x8dct=1 / cqm=0 / deadzone=21,11 / fast_pskip=1 / chroma_qp_offset=-2 / threads=12 / lookahead_threads=2 / sliced_threads=0 / nr=0 / decimate=1 / interlaced=0 / bluray_compat=0 / constrained_intra=0 / bframes=8 / b_pyramid=2 / b_adapt=2 / b_bias=0 / direct=3 / weightb=1 / open_gop=0 / weightp=2 / keyint=240 / keyint_min=24 / scenecut=40 / intra_refresh=0 / rc_lookahead=60 / rc=crf / mbtree=1 / crf=20.0 / qcomp=0.60 / qpmin=0 / qpmax=69 / qpstep=4 / vbv_maxrate=62500 / vbv_bufsize=78125 / crf_max=0.0 / nal_hrd=none / filler=0 / ip_ratio=1.40 / aq=1:1.00
    Default                     : Yes
    Forced                      : No
    Color range                 : Limited
    Color primaries             : BT.709
    Transfer characteristics    : BT.709
    Matrix coefficients         : BT.709

    Audio #1
    ID                          : 2
    Format                      : DTS
    Format/Info                 : Digital Theater Systems
    Mode                        : 16
    Format settings, Endianness : Big
    Codec ID                    : A_DTS
    Duration                    : 1 h 16 min
    Bit rate mode               : Constant
    Bit rate                    : 1 509 kb/s
    Channel(s)                  : 6 channels
    Channel positions           : Front: L C R, Side: L R, LFE
    Sampling rate               : 48.0 kHz
    Frame rate                  : 93.750 FPS (512 spf)
    Bit depth                   : 16 bits
    Compression mode            : Lossy
    Stream size                 : 831 MiB (27%)
    Title                       : Surround
    Language                    : English
    Default                     : Yes
    Forced                      : No

    Audio #2
    ID                          : 3
    Format                      : AC-3
    Format/Info                 : Audio Coding 3
    Format settings, Endianness : Big
    Codec ID                    : A_AC3
    Duration                    : 1 h 16 min
    Bit rate mode               : Constant
    Bit rate                    : 640 kb/s
    Channel(s)                  : 6 channels
    Channel positions           : Front: L C R, Side: L R, LFE
    Sampling rate               : 48.0 kHz
    Frame rate                  : 31.250 FPS (1536 spf)
    Bit depth                   : 16 bits
    Compression mode            : Lossy
    Stream size                 : 352 MiB (12%)
    Title                       : Surround
    Language                    : Spanish
    Service kind                : Complete Main
    Default                     : No
    Forced                      : No

    Text #1
    ID                          : 4
    Format                      : PGS
    Codec ID                    : S_HDMV/PGS
    Codec ID/Info               : Picture based subtitle format used on BDs/HD-DVDs
    Language                    : English
    Default                     : No
    Forced                      : No

    Text #2
    ID                          : 5
    Format                      : PGS
    Codec ID                    : S_HDMV/PGS
    Codec ID/Info               : Picture based subtitle format used on BDs/HD-DVDs
    Language                    : Spanish
    Default                     : No
    Forced                      : No

    Menu
    00:00:00.000                : :Chapter 1
    00:13:15.086                : :Chapter 2
    00:22:04.073                : :Chapter 3
    00:32:03.505                : :Chapter 4
    00:41:51.926                : :Chapter 5
    00:53:10.104                : :Chapter 6
    01:02:26.409                : :Chapter 7
    01:13:19.437                : :Chapter 8

  • Peso: 2.89 GB

Sinopsis

Scooby Doo! y sus amigos Fred, Daphne, Velma y Shaggy no son ajenos a la solución de misterios espeluznantes llenos de todo tipo de espíritus y duendes. Esta vez no es diferente. Como Scooby-Doo! y sus amigos están de camino a Blowout Beach para una verdadera fiesta en la playa en la Mystery Machine, Los Piratas Fantasmas amenazan con arruinar las buenas vibraciones de la banda. Scooby y la pandilla tienen la tarea de hacer que la fiesta vuelva a la pista, sin perder el ritmo.

Ficha técnica

Imágenes, Capturas de la película

Video trailer de la película

Enlaces de descarga

Descargar Lego Scooby-Doo! (2017) Full 1080p Latino
Descargar

dpeliculas

Aportes de DPeliculasHDmega la pass es:dpeliculashdmega.org Aportes de CinemaniaHD la pass es:cinemaniahdd.com

PelícuDelas relacionadas

  • Dragon Ball Super (2015) Full 1080p Latino

    2015
    Dragon Ball Super (2015) Full 1080p Latino

    5.0 0h 24m 2015

    Si eres un seguidor de la serie Dragon ball super latino, entonces ahora puedes disfrutar de esta maravillosa...

    Director: Akira Toriyama

    Género: Anime

    Actores: Naoki Tatsuta

  • La autopsia de Jane Doe (2016) 1080p Latino

    2016
    La autopsia de Jane Doe (2016) 1080p Latino

    4.0 1h 39m 2016

    Tommy y Austin Tilden regentan una morgue y un crematorio en Virginia. Un día, el sheriff local les...

    Director: Sheila McNaught

    Género: Misterio

    Actores: Parker Sawyers

  • The Ring (2002) Full Latino

    2002
    The Ring (2002) Full Latino

    0.0 1h 45m 2002

    Descargar gratis The Ring (2002) Full Latino. Rachel Keller es una periodista de investigación que no...

    Director: Gore Verbinski

    Género: Misterio

    Actores: Shannon Cochran

  • The Grudge 3 (2009) Full Latino

    2009
    The Grudge 3 (2009) Full Latino

    0.0 1h 30m 2009

    Descargar gratis The Grudge 3 (2009) Full Latino. Tercera entrega americana de la saga iniciada por Takashi...

    Director: Toby Wilkins

    Género: FULL 1080p Pesadas

    Actores: Shimba Tsuchiya

Comentarios 2
  • Matias - 20 Julio, 2017

    Solamente decirles Muchas Gracias son los mejores, la descargue sin ningún problema, Sigan así… Saludos desde Chile

    • dpelis

      Administrador
      - 21 Julio, 2017

      Saludos