Lego Reventon en la Playa (2017) 1080p Latino

1.015 vistas
1 estrella2 estrellas3 estrellas4 estrellas5 estrellas (Ninguna valoración todavía)
Cargando…

Información de Lego Reventon en la Playa (2017) 1080p Latino

Datos de la película

  • Calidad: 1080p
  • Audio: Español Latino AC3 5.1 BLURAY - Ingles AC3 5.1 BLURAY
  • Subtitulos: Español Latino SRT - Ingles SRT
  • Resolución: 1920x1080p
  • Formato: MKV
  • Codec: H.264
  • Encoder: Dpelis
  • Mediainfo: Ver Ver
  • Lego.scooby.doo.blowout.beach.2017.LATINO.mkv
    Format                      : Matroska
    Format version              : Version 4 / Version 2
    File size                   : 2.29 GiB
    Duration                    : 1 h 16 min
    Overall bit rate            : 4 268 kb/s
    Movie name                  : DPeliculasHDMega.ORG
    Encoded date                : UTC 2017-07-19 02:16:08 / UTC 2017-07-19T00:49:48Z
    Writing application         : mkvmerge v10.0.0 ('To Drown In You') 64bit
    Writing library             : libebml v1.3.4 + libmatroska v1.4.5 / Lavf57.7.2

    Video
    ID                          : 1
    Format                      : AVC
    Format/Info                 : Advanced Video Codec
    Format profile              : [email protected]
    Format settings, CABAC      : Yes
    Format settings, ReFrames   : 4 frames
    Codec ID                    : V_MPEG4/ISO/AVC
    Duration                    : 1 h 16 min
    Bit rate                    : 3 500 kb/s
    Width                       : 1 920 pixels
    Height                      : 1 080 pixels
    Display aspect ratio        : 16:9
    Frame rate mode             : Constant
    Frame rate                  : 23.976 (24000/1001) FPS
    Color space                 : YUV
    Chroma subsampling          : 4:2:0
    Bit depth                   : 8 bits
    Scan type                   : Progressive
    Bits/(Pixel*Frame)          : 0.070
    Stream size                 : 1.84 GiB (80%)
    Writing library             : x264 core 148 r2708 86b7198
    Encoding settings           : cabac=1 / ref=3 / deblock=1:0:0 / analyse=0x3:0x113 / me=hex / subme=7 / psy=1 / psy_rd=1.00:0.00 / mixed_ref=1 / me_range=16 / chroma_me=1 / trellis=1 / 8x8dct=1 / cqm=0 / deadzone=21,11 / fast_pskip=1 / chroma_qp_offset=-2 / threads=12 / lookahead_threads=2 / sliced_threads=0 / nr=0 / decimate=1 / interlaced=0 / bluray_compat=0 / constrained_intra=0 / bframes=3 / b_pyramid=2 / b_adapt=1 / b_bias=0 / direct=1 / weightb=1 / open_gop=0 / weightp=2 / keyint=240 / keyint_min=24 / scenecut=40 / intra_refresh=0 / rc_lookahead=40 / rc=abr / mbtree=1 / bitrate=3500 / ratetol=1.0 / qcomp=0.60 / qpmin=0 / qpmax=69 / qpstep=4 / vbv_maxrate=62500 / vbv_bufsize=78125 / nal_hrd=none / filler=0 / ip_ratio=1.40 / aq=1:1.00
    Default                     : Yes
    Forced                      : No
    Color range                 : Limited
    Color primaries             : BT.709
    Transfer characteristics    : BT.709
    Matrix coefficients         : BT.709
    Statistics Tags Issue       : mkvmerge v10.0.0 ('To Drown In You') 64bit 2017-07-19 02:16:08 / mkvmerge v10.0.0 ('To Drown In You') 64bit 2017-07-19 02:16:08 / UTC 2017-07-19T00:49:48Z
    FromStats_BitRate           : 3497467
    FromStats_Duration          : 01:16:57.155000000
    FromStats_FrameCount        : 110701
    FromStats_StreamSize        : 2018543729

    Audio #1
    ID                          : 2
    Format                      : AC-3
    Format/Info                 : Audio Coding 3
    Format settings, Endianness : Big
    Codec ID                    : A_AC3
    Duration                    : 1 h 16 min
    Bit rate mode               : Constant
    Bit rate                    : 384 kb/s
    Channel(s)                  : 6 channels
    Channel positions           : Front: L C R, Side: L R, LFE
    Sampling rate               : 48.0 kHz
    Frame rate                  : 31.250 FPS (1536 spf)
    Bit depth                   : 16 bits
    Compression mode            : Lossy
    Delay relative to video     : -5 ms
    Stream size                 : 211 MiB (9%)
    Title                       : Surround
    Language                    : Spanish
    Service kind                : Complete Main
    Default                     : No
    Forced                      : No
    Statistics Tags Issue       : mkvmerge v10.0.0 ('To Drown In You') 64bit 2017-07-19 02:16:08 / mkvmerge v10.0.0 ('To Drown In You') 64bit 2017-07-19 02:16:08 / UTC 2017-07-19T00:49:48Z
    FromStats_BitRate           : 384000
    FromStats_Duration          : 01:16:57.152000000
    FromStats_FrameCount        : 144286
    FromStats_StreamSize        : 221623296

    Audio #2
    ID                          : 3
    Format                      : AC-3
    Format/Info                 : Audio Coding 3
    Format settings, Endianness : Big
    Codec ID                    : A_AC3
    Duration                    : 1 h 16 min
    Bit rate mode               : Constant
    Bit rate                    : 384 kb/s
    Channel(s)                  : 6 channels
    Channel positions           : Front: L C R, Side: L R, LFE
    Sampling rate               : 48.0 kHz
    Frame rate                  : 31.250 FPS (1536 spf)
    Bit depth                   : 16 bits
    Compression mode            : Lossy
    Delay relative to video     : -5 ms
    Stream size                 : 211 MiB (9%)
    Title                       : Surround
    Language                    : English
    Service kind                : Complete Main
    Default                     : No
    Forced                      : No
    Statistics Tags Issue       : mkvmerge v10.0.0 ('To Drown In You') 64bit 2017-07-19 02:16:08 / mkvmerge v10.0.0 ('To Drown In You') 64bit 2017-07-19 02:16:08 / UTC 2017-07-19T00:49:48Z
    FromStats_BitRate           : 384000
    FromStats_Duration          : 01:16:57.120000000
    FromStats_FrameCount        : 144285
    FromStats_StreamSize        : 221621760

    Text #1
    ID                          : 4
    Format                      : UTF-8
    Codec ID                    : S_TEXT/UTF8
    Codec ID/Info               : UTF-8 Plain Text
    Language                    : Spanish
    Default                     : No
    Forced                      : No
    Statistics Tags Issue       : mkvmerge v10.0.0 ('To Drown In You') 64bit 2017-07-19 02:16:08 / mkvmerge v10.0.0 ('To Drown In You') 64bit 2017-07-19 02:16:08 / UTC 2017-07-19T00:49:48Z
    FromStats_BitRate           : 87
    FromStats_Duration          : 01:16:39.470000000
    FromStats_FrameCount        : 1225
    FromStats_StreamSize        : 50089

    Text #2
    ID                          : 5
    Format                      : UTF-8
    Codec ID                    : S_TEXT/UTF8
    Codec ID/Info               : UTF-8 Plain Text
    Language                    : Spanish
    Default                     : Yes
    Forced                      : No
    Statistics Tags Issue       : mkvmerge v10.0.0 ('To Drown In You') 64bit 2017-07-19 02:16:08 / mkvmerge v10.0.0 ('To Drown In You') 64bit 2017-07-19 02:16:08 / UTC 2017-07-19T00:49:48Z
    FromStats_BitRate           : 28
    FromStats_Duration          : 00:00:20.100000000
    FromStats_FrameCount        : 1
    FromStats_StreamSize        : 71

    Text #3
    ID                          : 6
    Format                      : UTF-8
    Codec ID                    : S_TEXT/UTF8
    Codec ID/Info               : UTF-8 Plain Text
    Language                    : English
    Default                     : No
    Forced                      : No
    Statistics Tags Issue       : mkvmerge v10.0.0 ('To Drown In You') 64bit 2017-07-19 02:16:08 / mkvmerge v10.0.0 ('To Drown In You') 64bit 2017-07-19 02:16:08 / UTC 2017-07-19T00:49:48Z
    FromStats_BitRate           : 94
    FromStats_Duration          : 01:16:27.124000000
    FromStats_FrameCount        : 1407
    FromStats_StreamSize        : 54379

    Menu
    00:00:00.000                : :Chapter 1
    00:13:15.086                : :Chapter 2
    00:22:04.073                : :Chapter 3
    00:32:03.505                : :Chapter 4
    00:41:51.926                : :Chapter 5
    00:53:10.104                : :Chapter 6
    01:02:26.409                : :Chapter 7
    01:13:19.437                : :Chapter 8

  • Peso: 2.29 GB

Sinopsis

Descargar Lego Scooby-Doo! Blowout Beach Bash hd latino,  Lego Scooby-Doo! Blowout Beach Bash es una próxima película de misterio de comedia animada por ordenador para 2017, dirigida directamente a DVD, y la vigésima novena entrada de la serie de películas de Scooby-Doo dirigida directamente al video, así como la segunda de la serie Basado en la marca Scooby-Doo de Lego. Será lanzado digital el 11 de julio de 2017 y en DVD y Blu-ray el 25 de julio de 2017.

 

 

Ficha técnica

  • Titulo original: Lego Scooby-Doo! Blowout Beach Bash
  • Fecha de lanzamiento: 10-Julio-2017 (United States of America)
  • Director: Ethan Spaulding
  • Género: Animación
  • Puntuación: 0.0 0 votos
  • Duración:
    1h 16m

Imágenes, Capturas de la película

Video trailer de la película

Enlaces de descarga

Descargar Lego Reventon en la Playa (2017) 1080p Latino
Descargar

dpeliculas

Aportes de DPeliculasHDmega la pass es:dpeliculashdmega.org Aportes de CinemaniaHD la pass es:cinemaniahdd.com
Guardado en : Animación

PelícuDelas relacionadas

Comentarios 0