Las Vegas a Macao III (2016) 1080p Latino

876 vistas
1 estrella2 estrellas3 estrellas4 estrellas5 estrellas (Ninguna valoración todavía)
Cargando…

Información de Las Vegas a Macao III (2016) 1080p Latino

Datos de la película

  • Calidad: 1080p
  • Audio: Español Latino AC3 2.0 DVD - Ingles AC3 5.1 BLURAY
  • Subtitulos: Español Latino SRT - Ingles SRT
  • Resolución: 1920x804p
  • Formato: MKV
  • Codec: H.264
  • Encoder: Dpelis
  • Mediainfo: Ver Ver
  • From.vegas.to.macau.iii.2016.1080p.latino.mkv
    Format                      : Matroska
    Format version              : Version 4 / Version 2
    File size                   : 3.18 GiB
    Duration                    : 1 h 52 min
    Overall bit rate            : 4 047 kb/s
    Encoded date                : UTC 2017-05-17 00:49:34 / UTC 2017-05-16T23:05:08Z
    Writing application         : mkvmerge v10.0.0 ('To Drown In You') 64bit
    Writing library             : libebml v1.3.4 + libmatroska v1.4.5 / Lavf57.7.2

    Video
    ID                          : 1
    Format                      : AVC
    Format/Info                 : Advanced Video Codec
    Format profile              : [email protected]
    Format settings, CABAC      : Yes
    Format settings, ReFrames   : 4 frames
    Codec ID                    : V_MPEG4/ISO/AVC
    Duration                    : 1 h 52 min
    Bit rate                    : 3 500 kb/s
    Width                       : 1 920 pixels
    Height                      : 804 pixels
    Display aspect ratio        : 2.40:1
    Frame rate mode             : Constant
    Frame rate                  : 24.000 FPS
    Color space                 : YUV
    Chroma subsampling          : 4:2:0
    Bit depth                   : 8 bits
    Scan type                   : Progressive
    Bits/(Pixel*Frame)          : 0.094
    Stream size                 : 2.64 GiB (83%)
    Writing library             : x264 core 148 r2708 86b7198
    Encoding settings           : cabac=1 / ref=3 / deblock=1:0:0 / analyse=0x3:0x113 / me=hex / subme=7 / psy=1 / psy_rd=1.00:0.00 / mixed_ref=1 / me_range=16 / chroma_me=1 / trellis=1 / 8x8dct=1 / cqm=0 / deadzone=21,11 / fast_pskip=1 / chroma_qp_offset=-2 / threads=12 / lookahead_threads=2 / sliced_threads=0 / nr=0 / decimate=1 / interlaced=0 / bluray_compat=0 / constrained_intra=0 / bframes=3 / b_pyramid=2 / b_adapt=1 / b_bias=0 / direct=1 / weightb=1 / open_gop=0 / weightp=2 / keyint=240 / keyint_min=24 / scenecut=40 / intra_refresh=0 / rc_lookahead=40 / rc=abr / mbtree=1 / bitrate=3500 / ratetol=1.0 / qcomp=0.60 / qpmin=0 / qpmax=69 / qpstep=4 / vbv_maxrate=62500 / vbv_bufsize=78125 / nal_hrd=none / filler=0 / ip_ratio=1.40 / aq=1:1.00
    Default                     : Yes
    Forced                      : No
    Color range                 : Limited
    Color primaries             : BT.709
    Transfer characteristics    : BT.709
    Matrix coefficients         : BT.709
    Statistics Tags Issue       : mkvmerge v10.0.0 ('To Drown In You') 64bit 2017-05-17 00:49:34 / mkvmerge v10.0.0 ('To Drown In You') 64bit 2017-05-17 00:49:34 / UTC 2017-05-16T23:05:08Z
    FromStats_BitRate           : 3437264
    FromStats_Duration          : 01:52:33.042000000
    FromStats_FrameCount        : 162073
    FromStats_StreamSize        : 2901499237

    Audio #1
    ID                          : 2
    Format                      : AC-3
    Format/Info                 : Audio Coding 3
    Format settings, Endianness : Big
    Codec ID                    : A_AC3
    Duration                    : 1 h 52 min
    Bit rate mode               : Constant
    Bit rate                    : 224 kb/s
    Channel(s)                  : 6 channels
    Channel positions           : Front: L C R, Side: L R, LFE
    Sampling rate               : 48.0 kHz
    Frame rate                  : 31.250 FPS (1536 spf)
    Bit depth                   : 16 bits
    Compression mode            : Lossy
    Delay relative to video     : -5 ms
    Stream size                 : 180 MiB (6%)
    Title                       : Surround
    Language                    : Spanish
    Service kind                : Complete Main
    Default                     : Yes
    Forced                      : No
    Statistics Tags Issue       : mkvmerge v10.0.0 ('To Drown In You') 64bit 2017-05-17 00:49:34 / mkvmerge v10.0.0 ('To Drown In You') 64bit 2017-05-17 00:49:34 / UTC 2017-05-16T23:05:08Z
    FromStats_BitRate           : 224000
    FromStats_Duration          : 01:52:31.040000000
    FromStats_FrameCount        : 210970
    FromStats_StreamSize        : 189029120

    Audio #2
    ID                          : 3
    Format                      : AC-3
    Format/Info                 : Audio Coding 3
    Mode                        : Dolby Digital
    Format settings, Endianness : Big
    Codec ID                    : A_AC3
    Duration                    : 1 h 52 min
    Bit rate mode               : Constant
    Bit rate                    : 384 kb/s
    Channel(s)                  : 2 channels
    Channel positions           : Front: L R
    Sampling rate               : 48.0 kHz
    Frame rate                  : 31.250 FPS (1536 spf)
    Bit depth                   : 16 bits
    Compression mode            : Lossy
    Delay relative to video     : -5 ms
    Stream size                 : 309 MiB (9%)
    Title                       : Stereo
    Language                    : Chinese
    Service kind                : Complete Main
    Default                     : No
    Forced                      : No
    Statistics Tags Issue       : mkvmerge v10.0.0 ('To Drown In You') 64bit 2017-05-17 00:49:34 / mkvmerge v10.0.0 ('To Drown In You') 64bit 2017-05-17 00:49:34 / UTC 2017-05-16T23:05:08Z
    FromStats_BitRate           : 384000
    FromStats_Duration          : 01:52:32.992000000
    FromStats_FrameCount        : 211031
    FromStats_StreamSize        : 324143616

    Text #1
    ID                          : 4
    Format                      : UTF-8
    Codec ID                    : S_TEXT/UTF8
    Codec ID/Info               : UTF-8 Plain Text
    Language                    : Spanish
    Default                     : No
    Forced                      : No
    Statistics Tags Issue       : mkvmerge v10.0.0 ('To Drown In You') 64bit 2017-05-17 00:49:34 / mkvmerge v10.0.0 ('To Drown In You') 64bit 2017-05-17 00:49:34 / UTC 2017-05-16T23:05:08Z
    FromStats_BitRate           : 54
    FromStats_Duration          : 01:43:37.342000000
    FromStats_FrameCount        : 1111
    FromStats_StreamSize        : 42511

    Text #2
    ID                          : 5
    Format                      : UTF-8
    Codec ID                    : S_TEXT/UTF8
    Codec ID/Info               : UTF-8 Plain Text
    Language                    : English
    Default                     : No
    Forced                      : No
    Statistics Tags Issue       : mkvmerge v10.0.0 ('To Drown In You') 64bit 2017-05-17 00:49:34 / mkvmerge v10.0.0 ('To Drown In You') 64bit 2017-05-17 00:49:34 / UTC 2017-05-16T23:05:08Z
    FromStats_BitRate           : 53
    FromStats_Duration          : 01:43:19.489000000
    FromStats_FrameCount        : 1375
    FromStats_StreamSize        : 41728

    Text #3
    ID                          : 6
    Format                      : UTF-8
    Codec ID                    : S_TEXT/UTF8
    Codec ID/Info               : UTF-8 Plain Text
    Language                    : Spanish
    Default                     : Yes
    Forced                      : No
    Statistics Tags Issue       : mkvmerge v10.0.0 ('To Drown In You') 64bit 2017-05-17 00:49:34 / mkvmerge v10.0.0 ('To Drown In You') 64bit 2017-05-17 00:49:34 / UTC 2017-05-16T23:05:08Z
    FromStats_BitRate           : 91
    FromStats_Duration          : 00:00:10.100000000
    FromStats_FrameCount        : 1
    FromStats_StreamSize        : 115

    Menu
    00:00:00.000                : :Chapter 1
    00:06:12.000                : :Chapter 2
    00:13:35.000                : :Chapter 3
    00:22:35.000                : :Chapter 4
    00:32:47.000                : :Chapter 5
    00:42:34.000                : :Chapter 6
    00:54:11.000                : :Chapter 7
    01:03:58.000                : :Chapter 8
    01:14:34.000                : :Chapter 9
    01:25:58.000                : :Chapter 10
    01:38:10.000                : :Chapter 11
    01:46:46.000                : :Chapter 12

  • Peso: 3.18 GB

Sinopsis

Durante la ceremonia de la boda de la hija de Ken, un misterioso villano está preparando una emboscada importante que resulta en un matadero. Después de pasar por la prisión, Ken, Mark, Michael Chen y verdadero Dios de los jugadores que tratan de detener este nuevo y poderoso enemigo.

Ficha técnica

Imágenes, Capturas de la película

Video trailer de la película

Enlaces de descarga

Descargar Las Vegas a Macao III (2016) 1080p Latino
Descargar
Descargar

dpeliculas

Aportes de DPeliculasHDmega la pass es:dpeliculashdmega.org Aportes de CinemaniaHD la pass es:cinemaniahdd.com
Guardado en : Comedia

PelícuDelas relacionadas

  • Sahara (2017) 1080p Latino

    2017
    Sahara (2017) 1080p Latino

    1.0 1h 19m 2017

    Cansado de ser el chivo expiatorio de su comunidad, entreabierta una serpiente y su amigo Pitt, escorpión,...

    Director: Pierre Coré

    Género: Animación

    Actores: Vincent Lacoste

  • Sahara (2017) 720p Latino

    2017
    Sahara (2017) 720p Latino

    0.0 1h 24m 2017

    Descargar Pelicula Sahara 2017 hd 720p latino,Cansados de ser el chivo expiatorio de su comunidad, Ajar...

    Director: Pierre Coré

    Género: Animación

    Actores: Vincent Lacoste

  • Los Pitufos: La aldea escondida (2017) WEBDL 720p Latino

    2017
    Los Pitufos: La aldea escondida (2017) WEBDL 720p Latino

    5.0 1h 35m 2017

    A Pitufina le parece que todos los demás habitantes de la aldea tienen un propósito: Papá Pitufo (dirigir),...

    Director: Kelly Asbury

    Género: Animación

    Actores: Tituss Burgess

  • CHiPs (2017) Full 1080p Latino

    2017
    CHiPs (2017) Full 1080p Latino

    0.0 1h 40m 2017

    Descargar Gratis CHiPs HD Latino,Dax Shepard (Fuga explosiva) escribe y dirige esta adaptación a la...

    Director: Steve Gehrke

    Género: Acción

    Actores: Vincent D'Onofrio

Comentarios 0