Advertise here

Las mujeres del vigesimo siglo (2016) 1080p Latino

815 vistas
1 estrella2 estrellas3 estrellas4 estrellas5 estrellas (1 votos, promedio: 4,00 de 5)
Cargando…

Información de Las mujeres del vigesimo siglo (2016) 1080p Latino

Datos de la película

  • Calidad: 1080p
  • Audio: Español Latino AC3 2.0 Capturado - Ingles AC3 5.1 BLURAY
  • Subtitulos: Español Latino SRT - Ingles SRT
  • Resolución: 1920x960p
  • Formato: MKV
  • Codec: H.264
  • Encoder: Dpelis
  • Mediainfo: Clic para Mostrar Datos Ver
  • 20th.century.women.2016.1080p.LATINO.mkv
    Format                      : Matroska
    Format version              : Version 4 / Version 2
    File size                   : 3.35 GiB
    Duration                    : 1 h 58 min
    Overall bit rate            : 4 043 kb/s
    Movie name                  : DPeliculasHDMega.ORG
    Encoded date                : UTC 2017-06-08 22:50:19 / UTC 2017-06-08T21:28:08Z
    Writing application         : mkvmerge v10.0.0 ('To Drown In You') 64bit
    Writing library             : libebml v1.3.4 + libmatroska v1.4.5 / Lavf57.7.2

    Video
    ID                          : 1
    Format                      : AVC
    Format/Info                 : Advanced Video Codec
    Format profile              : [email protected]
    Format settings, CABAC      : Yes
    Format settings, ReFrames   : 4 frames
    Codec ID                    : V_MPEG4/ISO/AVC
    Duration                    : 1 h 58 min
    Bit rate                    : 3 500 kb/s
    Width                       : 1 920 pixels
    Height                      : 960 pixels
    Display aspect ratio        : 2.000
    Frame rate mode             : Constant
    Frame rate                  : 23.976 (24000/1001) FPS
    Color space                 : YUV
    Chroma subsampling          : 4:2:0
    Bit depth                   : 8 bits
    Scan type                   : Progressive
    Bits/(Pixel*Frame)          : 0.079
    Stream size                 : 2.81 GiB (84%)
    Writing library             : x264 core 148 r2708 86b7198
    Encoding settings           : cabac=1 / ref=3 / deblock=1:0:0 / analyse=0x3:0x113 / me=hex / subme=7 / psy=1 / psy_rd=1.00:0.00 / mixed_ref=1 / me_range=16 / chroma_me=1 / trellis=1 / 8x8dct=1 / cqm=0 / deadzone=21,11 / fast_pskip=1 / chroma_qp_offset=-2 / threads=30 / lookahead_threads=5 / sliced_threads=0 / nr=0 / decimate=1 / interlaced=0 / bluray_compat=0 / constrained_intra=0 / bframes=3 / b_pyramid=2 / b_adapt=1 / b_bias=0 / direct=1 / weightb=1 / open_gop=0 / weightp=2 / keyint=240 / keyint_min=24 / scenecut=40 / intra_refresh=0 / rc_lookahead=40 / rc=abr / mbtree=1 / bitrate=3500 / ratetol=1.0 / qcomp=0.60 / qpmin=0 / qpmax=69 / qpstep=4 / vbv_maxrate=62500 / vbv_bufsize=78125 / nal_hrd=none / filler=0 / ip_ratio=1.40 / aq=1:1.00
    Default                     : Yes
    Forced                      : No
    Color range                 : Limited
    Color primaries             : BT.709
    Transfer characteristics    : BT.709
    Matrix coefficients         : BT.709
    Statistics Tags Issue       : mkvmerge v10.0.0 ('To Drown In You') 64bit 2017-06-08 22:50:19 / mkvmerge v10.0.0 ('To Drown In You') 64bit 2017-06-08 22:50:19 / UTC 2017-06-08T21:28:08Z
    FromStats_BitRate           : 3464466
    FromStats_Duration          : 01:58:44.159000000
    FromStats_FrameCount        : 170809
    FromStats_StreamSize        : 3085176523

    Audio #1
    ID                          : 2
    Format                      : AC-3
    Format/Info                 : Audio Coding 3
    Format settings, Endianness : Big
    Codec ID                    : A_AC3
    Duration                    : 1 h 58 min
    Bit rate mode               : Constant
    Bit rate                    : 192 kb/s
    Channel(s)                  : 2 channels
    Channel positions           : Front: L R
    Sampling rate               : 48.0 kHz
    Frame rate                  : 31.250 FPS (1536 spf)
    Bit depth                   : 16 bits
    Compression mode            : Lossy
    Delay relative to video     : -5 ms
    Stream size                 : 163 MiB (5%)
    Language                    : Spanish
    Service kind                : Complete Main
    Default                     : Yes
    Forced                      : No
    Statistics Tags Issue       : mkvmerge v10.0.0 ('To Drown In You') 64bit 2017-06-08 22:50:19 / mkvmerge v10.0.0 ('To Drown In You') 64bit 2017-06-08 22:50:19 / UTC 2017-06-08T21:28:08Z
    FromStats_BitRate           : 192000
    FromStats_Duration          : 01:58:44.128000000
    FromStats_FrameCount        : 222629
    FromStats_StreamSize        : 170979072

    Audio #2
    ID                          : 3
    Format                      : AC-3
    Format/Info                 : Audio Coding 3
    Format settings, Endianness : Big
    Codec ID                    : A_AC3
    Duration                    : 1 h 58 min
    Bit rate mode               : Constant
    Bit rate                    : 384 kb/s
    Channel(s)                  : 6 channels
    Channel positions           : Front: L C R, Side: L R, LFE
    Sampling rate               : 48.0 kHz
    Frame rate                  : 31.250 FPS (1536 spf)
    Bit depth                   : 16 bits
    Compression mode            : Lossy
    Delay relative to video     : -5 ms
    Stream size                 : 326 MiB (9%)
    Title                       : Surround
    Language                    : English
    Service kind                : Complete Main
    Default                     : No
    Forced                      : No
    Statistics Tags Issue       : mkvmerge v10.0.0 ('To Drown In You') 64bit 2017-06-08 22:50:19 / mkvmerge v10.0.0 ('To Drown In You') 64bit 2017-06-08 22:50:19 / UTC 2017-06-08T21:28:08Z
    FromStats_BitRate           : 384000
    FromStats_Duration          : 01:58:44.096000000
    FromStats_FrameCount        : 222628
    FromStats_StreamSize        : 341956608

    Text #1
    ID                          : 4
    Format                      : UTF-8
    Codec ID                    : S_TEXT/UTF8
    Codec ID/Info               : UTF-8 Plain Text
    Language                    : Spanish
    Default                     : No
    Forced                      : No
    Statistics Tags Issue       : mkvmerge v10.0.0 ('To Drown In You') 64bit 2017-06-08 22:50:19 / mkvmerge v10.0.0 ('To Drown In You') 64bit 2017-06-08 22:50:19 / UTC 2017-06-08T21:28:08Z
    FromStats_BitRate           : 53
    FromStats_Duration          : 01:52:10.300000000
    FromStats_FrameCount        : 1470
    FromStats_StreamSize        : 45308

    Text #2
    ID                          : 5
    Format                      : UTF-8
    Codec ID                    : S_TEXT/UTF8
    Codec ID/Info               : UTF-8 Plain Text
    Language                    : English
    Default                     : No
    Forced                      : No
    Statistics Tags Issue       : mkvmerge v10.0.0 ('To Drown In You') 64bit 2017-06-08 22:50:19 / mkvmerge v10.0.0 ('To Drown In You') 64bit 2017-06-08 22:50:19 / UTC 2017-06-08T21:28:08Z
    FromStats_BitRate           : 62
    FromStats_Duration          : 01:58:19.138000000
    FromStats_FrameCount        : 1762
    FromStats_StreamSize        : 55122

    Text #3
    ID                          : 6
    Format                      : UTF-8
    Codec ID                    : S_TEXT/UTF8
    Codec ID/Info               : UTF-8 Plain Text
    Language                    : Spanish
    Default                     : Yes
    Forced                      : No
    Statistics Tags Issue       : mkvmerge v10.0.0 ('To Drown In You') 64bit 2017-06-08 22:50:19 / mkvmerge v10.0.0 ('To Drown In You') 64bit 2017-06-08 22:50:19 / UTC 2017-06-08T21:28:08Z
    FromStats_BitRate           : 45
    FromStats_Duration          : 00:00:20.100000000
    FromStats_FrameCount        : 1
    FromStats_StreamSize        : 115

    Menu
    00:00:00.000                : :00:00:00.000
    00:07:53.056                : :00:07:53.056
    00:15:01.109                : :00:15:01.109
    00:23:27.323                : :00:23:27.323
    00:34:07.128                : :00:34:07.128
    00:40:13.912                : :00:40:13.911
    00:48:06.175                : :00:48:06.175
    00:56:40.439                : :00:56:40.439
    01:02:24.532                : :01:02:24.532
    01:07:19.911                : :01:07:19.911
    01:16:52.149                : :01:16:52.149
    01:21:51.198                : :01:21:51.198
    01:27:41.298                : :01:27:41.256
    01:35:06.159                : :01:35:06.159
    01:40:34.904                : :01:40:34.904
    01:48:43.767                : :01:48:43.767

  • Peso: 3.35 GB

Sinopsis

Ubicada en Santa Bárbara, la historia sigue a Dorothea Fields (Annette Bening), una enérgica mujer soltera que ronda los 55 años y cuya mayor preocupación es la educación de su hijo adolescente, Jamie (Lucas Jade Zumann), todo ello en una época de rebelión y pleno cambio cultural. Ante la imposibilidad de controlar a su hijo, Dorothea solicita la ayuda de dos jóvenes mujeres: Abbie (Greta Gerwig), una artista de punk de espíritu libre que vive como invitada en la casa de los Fields y Julie (Elle Fanning), la inteligente y provocadora vecina.

Ficha técnica

  • Titulo original: 20th Century Women
  • Fecha de lanzamiento: 25-12-2016 (United States of America)
  • Director: Julia Schachter, Mike Mills
  • Género: Drama
  • Puntuación: 4.0 1 votos
  • Duración:
    1h 58m

Video trailer de la película

Enlaces de descarga

Descargar Las mujeres del vigesimo siglo (2016) 1080p Latino
Descargar

dpeliculas

Aportes de DPeliculasHDmega la pass es:dpeliculashdmega.org Aportes de CinemaniaHD la pass es:cinemaniahdd.com
Guardado en : Drama

Películas relacionadas

  • Your name (2016) Full 1080p Latino

    2016
    Your name (2016) Full 1080p Latino

    5.0 1 h 46 min 2016

    La película nos presenta a dos jóvenes, Mitsuha y Taki. La primera es una estudiante de instituto que...

    Director: Makoto Shinkai

    Género: Animación

    Actores: Tani Kanon

  • Atrápame si puedes (2002) Full 1080p Latino

    2002
    Atrápame si puedes (2002) Full 1080p Latino

    0.0 2h 20m 2002

    Frank Abagnale Jr. trabajó como médico, abogado y copiloto de una de las grandes líneas aéreas, todo...

    Director: Steven Spielberg

    Género: Crimen

    Actores: William Lauzon

  • Mi Nueva Yo (2017) WEBDL 1080p Latino

    2017
    Mi Nueva Yo (2017) WEBDL 1080p Latino

    0.0 1 h 37 min 2017

    Una madre de dos hijos se acaba de separar y decide iniciar una nueva vida en Los Ángeles. Los acontecimientos...

    Director: Hallie Meyers-Shyer

    Género: Comedia

    Actores: Reid Scott

  • The Walking Dead (2017) Temporada 8 WEBDL 1080p Latino

    2017
    The Walking Dead (2017) Temporada 8 WEBDL 1080p Latino

    5.0 0h 42m 2017

    Rick, Maggie y Ezekiel reúnen a sus comunidades para derrotar a Negan y los salvadores. Gregory intenta...

    Director: Frank Darabont

    Género: Action & Adventure

    Actores: Norman Reedus

Comentarios 5
  • Pachorra - 09 junio, 2017

    una pregunta Kong aun no salio ?¡?¡

    • dpelis

      Administrador
      - 09 junio, 2017

      aun no estimado

  • Jonna - 09 junio, 2017

    Me podrían ayudar con las películas de pirata del caribe probé la 1 y 2 y no carga el paste para bajar
    https://pastedpelis.club/index.php?v=412
    Gracias

    • dpelis

      Administrador
      - 09 junio, 2017

      cuando suceda eso borrar el https:// y cargara

      • Jonna - 10 junio, 2017

        Gracias amigo ya funciona