Advertise here

La Razón de Estar Contigo (2017) Full 1080p Latino

3.813 vistas
1 estrella2 estrellas3 estrellas4 estrellas5 estrellas (3 votos, promedio: 4,67 de 5)
Cargando…

Información de La Razón de Estar Contigo (2017) Full 1080p Latino

la razon de estar conrigo 1080p latino

Datos de la película

  • Calidad: Full 1080p
  • Audio: Español Latino DTS 5.1 BLURAY - Ingles DTS 5.1 BLURAY
  • Subtitulos: Español Latino PGS - Ingles PGS
  • Resolución: 1920x1080p
  • Formato: MKV
  • Codec: H.264
  • Encoder: Dpelis
  • Mediainfo: Clic para Mostrar Datos Ver
  • A.dog's.purpose.2017.HD.Full.LATINO.mkv
    Format                      : Matroska
    Format version              : Version 4 / Version 2
    File size                   : 4.45 GiB
    Duration                    : 1 h 40 min
    Overall bit rate            : 6 372 kb/s
    Movie name                  : DPeliculasHDMega.ORG
    Encoded date                : UTC 2017-04-28 00:16:39 / UTC 2017-04-26T23:07:23Z
    Writing application         : mkvmerge v10.0.0 ('To Drown In You') 64bit
    Writing library             : libebml v1.3.4 + libmatroska v1.4.5 / Lavf57.7.2

    Video
    ID                          : 1
    Format                      : AVC
    Format/Info                 : Advanced Video Codec
    Format profile              : [email protected]
    Format settings, CABAC      : Yes
    Format settings, ReFrames   : 4 frames
    Codec ID                    : V_MPEG4/ISO/AVC
    Duration                    : 1 h 40 min
    Bit rate                    : 3 969 kb/s
    Width                       : 1 920 pixels
    Height                      : 1 080 pixels
    Display aspect ratio        : 16:9
    Frame rate mode             : Constant
    Frame rate                  : 23.976 (24000/1001) FPS
    Color space                 : YUV
    Chroma subsampling          : 4:2:0
    Bit depth                   : 8 bits
    Scan type                   : Progressive
    Bits/(Pixel*Frame)          : 0.080
    Stream size                 : 2.77 GiB (62%)
    Writing library             : x264 core 148 r2708 86b7198
    Encoding settings           : cabac=1 / ref=4 / deblock=1:0:0 / analyse=0x3:0x133 / me=esa / subme=10 / psy=1 / psy_rd=1.00:0.00 / mixed_ref=1 / me_range=24 / chroma_me=1 / trellis=2 / 8x8dct=1 / cqm=0 / deadzone=21,11 / fast_pskip=1 / chroma_qp_offset=-2 / threads=12 / lookahead_threads=2 / sliced_threads=0 / nr=0 / decimate=1 / interlaced=0 / bluray_compat=0 / constrained_intra=0 / bframes=8 / b_pyramid=2 / b_adapt=2 / b_bias=0 / direct=3 / weightb=1 / open_gop=0 / weightp=2 / keyint=240 / keyint_min=24 / scenecut=40 / intra_refresh=0 / rc_lookahead=60 / rc=crf / mbtree=1 / crf=20.0 / qcomp=0.60 / qpmin=0 / qpmax=69 / qpstep=4 / vbv_maxrate=62500 / vbv_bufsize=78125 / crf_max=0.0 / nal_hrd=none / filler=0 / ip_ratio=1.40 / aq=1:1.00
    Default                     : Yes
    Forced                      : No
    Color range                 : Limited
    Color primaries             : BT.709
    Transfer characteristics    : BT.709
    Matrix coefficients         : BT.709
    Statistics Tags Issue       : mkvmerge v10.0.0 ('To Drown In You') 64bit 2017-04-28 00:16:39 / mkvmerge v10.0.0 ('To Drown In You') 64bit 2017-04-28 00:16:39 / UTC 2017-04-26T23:07:23Z
    FromStats_BitRate           : 4067537
    FromStats_Duration          : 01:40:02.205000000
    FromStats_FrameCount        : 143909
    FromStats_StreamSize        : 3051773976

    Audio #1
    ID                          : 2
    Format                      : DTS
    Format/Info                 : Digital Theater Systems
    Mode                        : 16
    Format settings, Endianness : Big
    Codec ID                    : A_DTS
    Duration                    : 1 h 40 min
    Bit rate mode               : Constant
    Bit rate                    : 768 kb/s
    Channel(s)                  : 6 channels
    Channel positions           : Front: L C R, Side: L R, LFE
    Sampling rate               : 48.0 kHz
    Frame rate                  : 93.750 FPS (512 spf)
    Bit depth                   : 24 bits
    Compression mode            : Lossy
    Stream size                 : 550 MiB (12%)
    Title                       : Surround
    Language                    : Spanish
    Default                     : Yes
    Forced                      : No
    Statistics Tags Issue       : mkvmerge v10.0.0 ('To Drown In You') 64bit 2017-04-28 00:16:39 / mkvmerge v10.0.0 ('To Drown In You') 64bit 2017-04-28 00:16:39 / UTC 2017-04-26T23:07:23Z
    FromStats_BitRate           : 767999
    FromStats_Duration          : 01:40:02.198000000
    FromStats_FrameCount        : 562706
    FromStats_StreamSize        : 576210944

    Audio #2
    ID                          : 3
    Format                      : DTS
    Format/Info                 : Digital Theater Systems
    Mode                        : 16
    Format settings, Endianness : Big
    Codec ID                    : A_DTS
    Duration                    : 1 h 40 min
    Bit rate mode               : Constant
    Bit rate                    : 1 509 kb/s
    Channel(s)                  : 6 channels
    Channel positions           : Front: L C R, Side: L R, LFE
    Sampling rate               : 48.0 kHz
    Frame rate                  : 93.750 FPS (512 spf)
    Bit depth                   : 24 bits
    Compression mode            : Lossy
    Stream size                 : 1.05 GiB (24%)
    Title                       : Surround
    Language                    : English
    Default                     : No
    Forced                      : No
    Statistics Tags Issue       : mkvmerge v10.0.0 ('To Drown In You') 64bit 2017-04-28 00:16:39 / mkvmerge v10.0.0 ('To Drown In You') 64bit 2017-04-28 00:16:39 / UTC 2017-04-26T23:07:23Z
    FromStats_BitRate           : 1508999
    FromStats_Duration          : 01:40:02.198000000
    FromStats_FrameCount        : 562706
    FromStats_StreamSize        : 1132164472

    Text #1
    ID                          : 4
    Format                      : PGS
    Muxing mode                 : zlib
    Codec ID                    : S_HDMV/PGS
    Codec ID/Info               : Picture based subtitle format used on BDs/HD-DVDs
    Language                    : Spanish
    Default                     : No
    Forced                      : No
    Statistics Tags Issue       : mkvmerge v10.0.0 ('To Drown In You') 64bit 2017-04-28 00:16:39 / mkvmerge v10.0.0 ('To Drown In You') 64bit 2017-04-28 00:16:39 / UTC 2017-04-26T23:07:23Z
    FromStats_BitRate           : 10951
    FromStats_Duration          : 01:39:12.029000000
    FromStats_FrameCount        : 3090
    FromStats_StreamSize        : 8148270

    Text #2
    ID                          : 5
    Format                      : PGS
    Muxing mode                 : zlib
    Codec ID                    : S_HDMV/PGS
    Codec ID/Info               : Picture based subtitle format used on BDs/HD-DVDs
    Title                       : Forzados
    Language                    : Spanish
    Default                     : No
    Forced                      : No
    Statistics Tags Issue       : mkvmerge v10.0.0 ('To Drown In You') 64bit 2017-04-28 00:16:39 / mkvmerge v10.0.0 ('To Drown In You') 64bit 2017-04-28 00:16:39 / UTC 2017-04-26T23:07:23Z
    FromStats_BitRate           : 81
    FromStats_Duration          : 01:38:14.639000000
    FromStats_FrameCount        : 18
    FromStats_StreamSize        : 60176

    Text #3
    ID                          : 6
    Format                      : PGS
    Muxing mode                 : zlib
    Codec ID                    : S_HDMV/PGS
    Codec ID/Info               : Picture based subtitle format used on BDs/HD-DVDs
    Language                    : English
    Default                     : No
    Forced                      : No
    Statistics Tags Issue       : mkvmerge v10.0.0 ('To Drown In You') 64bit 2017-04-28 00:16:39 / mkvmerge v10.0.0 ('To Drown In You') 64bit 2017-04-28 00:16:39 / UTC 2017-04-26T23:07:23Z
    FromStats_BitRate           : 14746
    FromStats_Duration          : 01:32:35.925000000
    FromStats_FrameCount        : 3426
    FromStats_StreamSize        : 10241046

    Text #4
    ID                          : 7
    Format                      : ASS
    Codec ID                    : S_TEXT/ASS
    Codec ID/Info               : Advanced Sub Station Alpha
    Compression mode            : Lossless
    Language                    : Spanish
    Default                     : No
    Forced                      : No
    Statistics Tags Issue       : mkvmerge v10.0.0 ('To Drown In You') 64bit 2017-04-28 00:16:39 / mkvmerge v10.0.0 ('To Drown In You') 64bit 2017-04-28 00:16:39 / UTC 2017-04-26T23:07:23Z
    FromStats_BitRate           : 107
    FromStats_Duration          : 00:00:10.100000000
    FromStats_FrameCount        : 1
    FromStats_StreamSize        : 136

    Menu
    00:00:00.000                : :Chapter 1
    00:04:39.780                : :Chapter 2
    00:08:54.409                : :Chapter 3
    00:14:10.308                : :Chapter 4
    00:17:46.482                : :Chapter 5
    00:22:38.607                : :Chapter 6
    00:28:33.003                : :Chapter 7
    00:33:45.482                : :Chapter 8
    00:37:26.703                : :Chapter 9
    00:42:16.117                : :Chapter 10
    00:48:31.534                : :Chapter 11
    00:51:24.248                : :Chapter 12
    00:56:04.736                : :Chapter 13
    01:01:12.669                : :Chapter 14
    01:05:40.311                : :Chapter 15
    01:12:03.069                : :Chapter 16
    01:16:24.497                : :Chapter 17
    01:21:07.988                : :Chapter 18
    01:27:57.939                : :Chapter 19
    01:33:40.615                : :Chapter 20

  • Peso: 4.45 GB

Sinopsis

A Dog’s Purpose también conocida La razón de estar contigo 1080p latino en Hispanoamérica es una película de comedia dramática estadounidense, dirigida por Lasse Hallström y escrita por Audrey Wells. Está basada en la novela homónima publicada por W. Bruce Cameron en 2010. Sus protagonistas con Britt Robertson, Dennis Quaid, KJ Apa, Josh Gad, Peggy Lipton y Juliet Rylance. Universal Pictures programó su estreno para el 27 de enero de 2017.

 

Toby es un perro que el sentido de su vida preguntándose cuando, sorprendido, se da cuenta de que se ha reencarnado como un cachorro. Por lo tanto, para la vida que significa que tendrá que responder al tiempo que ayuda a diferentes propietarios, pero siempre con el fin de responder a la primera.

Ficha técnica

Video trailer de la película

Enlaces de descarga

Descargar La Razón de Estar Contigo (2017) Full 1080p Latino
Descargar

dpeliculas

Aportes de DPeliculasHDmega la pass es:dpeliculashdmega.org Aportes de CinemaniaHD la pass es:cinemaniahdd.com

Películas relacionadas

  • Pilgrimage (2017) WEB-DL 1080p Latino

    2017
    Pilgrimage (2017) WEB-DL 1080p Latino

    0.0 1 h 36 min 2017

    “Roma ha hablado”, con esa frase unos monjes cristianos deben comenzar la peregrinación hacia Roma...

    Director: Sophie Higel

    Género: Acción

    Actores: Tristan McConnell

  • The Bourne Ultimátum (2007) Full 1080p Latino

    2007
    The Bourne Ultimátum (2007) Full 1080p Latino

    5.0 1 h 55 min 2007

    Jason Bourne sigue investigando quién es y qué hay realmente detrás del programa secreto de la CIA...

    Director: Sue Mahoney

    Género: Acción

    Actores: William H. Burns

  • The Bourne Supremacy (2004) Full 1080p Latino

    2004
    The Bourne Supremacy (2004) Full 1080p Latino

    5.0 1h 48m 2004

    El pasado de Jason Bourne vuelve por él. En la segunda entrega de la saga de tres películas basadas...

    Director: Thorne Mutert

    Género: Acción

    Actores: Yevgeni Sitokhin

Comentarios 1
  • Jonna - 03 mayo, 2017

    Gracias, Bajando