La princesa Mononoke (1997) Full 1080p Latino

2.414 vistas
1 estrella2 estrellas3 estrellas4 estrellas5 estrellas (3 votos, promedio: 4,33 de 5)
Cargando…

Información de La princesa Mononoke (1997) Full 1080p Latino

La princesa Mononoke

Datos de la película

  • Calidad: Full 1080p
  • Audio: Español Latino AC3 5.1 DVD - Ingles DTS 5.1 BLURAY
  • Subtitulos: Español Latino SRT - Ingles SRT
  • Resolución: 1920x1080p
  • Formato: MKV
  • Codec: H.264
  • Encoder: Dpelis
  • Mediainfo: Ver Ver
  • La princesa Mononoke 1997 HD FULL 1080p Latino.mkv
    Format                      : Matroska
    Format version              : Version 4 / Version 2
    File size                   : 6.92 GiB
    Duration                    : 2 h 14 min
    Overall bit rate            : 7 392 kb/s
    Movie name                  : DPeliculasHDMega.ORG
    Encoded date                : UTC 2017-04-16 19:29:19
    Writing application         : mkvmerge v10.0.0 ('To Drown In You') 64bit
    Writing library             : libebml v1.3.4 + libmatroska v1.4.5

    Video
    ID                          : 1
    Format                      : AVC
    Format/Info                 : Advanced Video Codec
    Format profile              : [email protected]
    Format settings, CABAC      : Yes
    Format settings, ReFrames   : 4 frames
    Codec ID                    : V_MPEG4/ISO/AVC
    Duration                    : 2 h 14 min
    Bit rate                    : 5 435 kb/s
    Width                       : 1 920 pixels
    Height                      : 1 080 pixels
    Display aspect ratio        : 16:9
    Frame rate mode             : Constant
    Frame rate                  : 23.976 FPS
    Color space                 : YUV
    Chroma subsampling          : 4:2:0
    Bit depth                   : 8 bits
    Scan type                   : Progressive
    Bits/(Pixel*Frame)          : 0.109
    Stream size                 : 5.09 GiB (74%)
    Writing library             : x264 core 148 r2708 86b7198
    Encoding settings           : cabac=1 / ref=4 / deblock=1:0:0 / analyse=0x3:0x133 / me=esa / subme=10 / psy=1 / psy_rd=1.00:0.00 / mixed_ref=1 / me_range=24 / chroma_me=1 / trellis=2 / 8x8dct=1 / cqm=0 / deadzone=21,11 / fast_pskip=1 / chroma_qp_offset=-2 / threads=12 / lookahead_threads=2 / sliced_threads=0 / nr=0 / decimate=1 / interlaced=0 / bluray_compat=0 / constrained_intra=0 / bframes=8 / b_pyramid=2 / b_adapt=2 / b_bias=0 / direct=3 / weightb=1 / open_gop=0 / weightp=2 / keyint=240 / keyint_min=24 / scenecut=40 / intra_refresh=0 / rc_lookahead=60 / rc=crf / mbtree=1 / crf=20.0 / qcomp=0.60 / qpmin=0 / qpmax=69 / qpstep=4 / vbv_maxrate=62500 / vbv_bufsize=78125 / crf_max=0.0 / nal_hrd=none / filler=0 / ip_ratio=1.40 / aq=1:1.00
    Default                     : Yes
    Forced                      : No
    Color range                 : Limited
    Color primaries             : BT.709
    Transfer characteristics    : BT.709
    Matrix coefficients         : BT.709

    Audio #1
    ID                          : 2
    Format                      : AC-3
    Format/Info                 : Audio Coding 3
    Codec ID                    : A_AC3
    Duration                    : 2 h 13 min
    Bit rate                    : 448 kb/s
    Channel(s)                  : 6 channels
    Sampling rate               : 48.0 kHz
    Frame rate                  : 31.250 FPS (1536 spf)
    Compression mode            : Lossy
    Stream size                 : 427 MiB (6%)
    Language                    : Spanish
    Default                     : Yes
    Forced                      : No

    Audio #2
    ID                          : 3
    Format                      : DTS
    Format/Info                 : Digital Theater Systems
    Mode                        : 16
    Format settings, Endianness : Big
    Codec ID                    : A_DTS
    Duration                    : 2 h 14 min
    Bit rate mode               : Constant
    Bit rate                    : 1 509 kb/s
    Channel(s)                  : 6 channels
    Channel positions           : Front: L C R, Side: L R, LFE
    Sampling rate               : 48.0 kHz
    Frame rate                  : 93.750 FPS (512 spf)
    Bit depth                   : 24 bits
    Compression mode            : Lossy
    Stream size                 : 1.41 GiB (20%)
    Language                    : English
    Default                     : No
    Forced                      : No

    Text #1
    ID                          : 4
    Format                      : UTF-8
    Codec ID                    : S_TEXT/UTF8
    Codec ID/Info               : UTF-8 Plain Text
    Duration                    : 2 h 13 min
    Bit rate                    : 31 b/s
    Count of elements           : 1078
    Stream size                 : 30.9 KiB (0%)
    Language                    : Spanish
    Default                     : No
    Forced                      : No

    Text #2
    ID                          : 5
    Format                      : UTF-8
    Codec ID                    : S_TEXT/UTF8
    Codec ID/Info               : UTF-8 Plain Text
    Duration                    : 2 h 8 min
    Bit rate                    : 36 b/s
    Count of elements           : 1068
    Stream size                 : 34.0 KiB (0%)
    Language                    : English
    Default                     : No
    Forced                      : No

    Text #3
    ID                          : 6
    Format                      : UTF-8
    Codec ID                    : S_TEXT/UTF8
    Codec ID/Info               : UTF-8 Plain Text
    Duration                    : 10 s 100 ms
    Bit rate                    : 91 b/s
    Count of elements           : 1
    Stream size                 : 115 Bytes (0%)
    Language                    : Spanish
    Default                     : Yes
    Forced                      : No

    Menu
    00:00:00.000                : en:Chapter 1
    00:08:03.908                : en:Chapter 2
    00:13:00.121                : en:Chapter 3
    00:16:33.375                : en:Chapter 4
    00:19:20.250                : en:Chapter 5
    00:21:44.686                : en:Chapter 6
    00:23:45.807                : en:Chapter 7
    00:26:06.740                : en:Chapter 8
    00:29:21.726                : en:Chapter 9
    00:33:27.221                : en:Chapter 10
    00:39:17.655                : en:Chapter 11
    00:44:49.987                : en:Chapter 12
    00:55:13.568                : en:Chapter 13
    01:00:08.738                : en:Chapter 14
    01:05:39.193                : en:Chapter 15
    01:13:14.857                : en:Chapter 16
    01:17:57.305                : en:Chapter 17
    01:22:59.441                : en:Chapter 18
    01:27:57.155                : en:Chapter 19
    01:33:54.303                : en:Chapter 20
    01:38:52.017                : en:Chapter 21
    01:48:47.362                : en:Chapter 22
    02:03:10.099                : en:Chapter 23
    02:05:46.297                : en:Chapter 24
    02:09:02.540                : en:Chapter 25

  • Peso: 6.92 GB

Sinopsis

La princesa Mononoke 1080p latino. es una película de animación japonesa de Hayao Miyazaki que se estrenó en 1997.1 Ambientada en el Japón medieval, se centra en la lucha entre los guardianes sobrenaturales de un bosque y los humanos que necesitan sus recursos, visto por el forastero Ashitaka. En realidad, Mononoke no es un nombre, sino una descripción que puede ser traducida en este contexto como (espíritu vengador); por lo que el título de la película literalmente podría traducirse como La princesa de los espíritus vengadores.

Después de ser atacado por un jabalí monstruoso sangrienta, joven Ashitaka está en el camino en la búsqueda de una cura para detener la infección. Mientras tanto, los seres humanos están destruyendo los bosques y se transforman en bestias hacen todos los esfuerzos posibles para proteger llevado Mononoke, una princesa guerrera. Ashikata debe elegir un bando y decide ayudar a los hombres o dioses tratar de detener la maldición de su lesión se extiende su cuerpo no, gracias

 

 

SOLO AUDIO JAPONES DTS Master

 

Ficha técnica

Imágenes, Capturas de la película

Video trailer de la película

Enlaces de descarga

Descargar La princesa Mononoke (1997) Full 1080p Latino
Descargar

dpeliculas

Aportes de DPeliculasHDmega la pass es:dpeliculashdmega.org Aportes de CinemaniaHD la pass es:cinemaniahdd.com
Guardado en : Animación , Aventura , Fantasía

PelícuDelas relacionadas

  • Poesía sin fin (2016) Full Latino

    2016
    Poesía sin fin (2016) Full Latino

    0.0 0h 0m 2016

    Descargar gratis Poesía sin fin (2016) Full Latino. A traves de la lente autobiográfica de Alejandro...

    Director: Alejandro Jodorowsky

    Género: Drama

    Actores: Pamela Flores

  • El fugitivo (1993) Full 1080p Latino

    1993
    El fugitivo (1993) Full 1080p Latino

    5.0 2h 13m 1993

    El doctor Richard Kimble es un prestigioso cirujano de Chicago con una vida prácticamente perfecta:...

    Director: Andrew Davis

    Género: Acción

    Actores: Turk Muller

Comentarios 10
  • VAN - 08 agosto, 2017

    Links ya no funcionan.

    • dpelis

      Administrador
      - 08 agosto, 2017

      que se refiere q no funciona? porque los veo bien. debe especificar mas

  • slash - 24 mayo, 2017

    La calidad es brutal, y muchas gracias por agregar el audio japonés.

  • Delta - 18 abril, 2017

    Buenisimo! Van a subir más películas de Miyazaki?

    • dpelis

      Administrador
      - 18 abril, 2017

      pueda ser q si aunq no se cuales. son no amante del este tipo e movies, pero si encuentro los bd si los mencionas pueda q los suba, saludos

      • Delta - 18 abril, 2017

        La tumba de las luciérnagas, Mi vecino Totoro, Kiki: Entregas a domicilio, El viaje de Chihiro, Haru en el reino de los gatos, El castillo ambulante, todas son hermosas películas. Sería genial que puedas encontrar cualquiera del estudio Ghibli en realidad, muy disfrutables, y tener el audio original y en latino es un extra que se agradece bastante.

        • dpelis

          Administrador
          - 18 abril, 2017

          pfff me mataste 😀 haber si algun dia esty libre busco, saludos

  • David - 17 abril, 2017

    ¿Es la versión remaste rizada verdad? es buenisima la calidad alcanzada de verdad divina, pero siento que 6.2GB son desentes pero en x265 seria mejor para las peliculas animadas no creen, mejor calidad y menor tamaño

    • dpelis

      Administrador
      - 17 abril, 2017

      correcto, BD50 USA, NO subimos 265, solo hay un usuario que lo hace con estrenos ya q demoran m 24 horas los ripeos. Saludos

      • David - 17 abril, 2017

        wow, ya entiendo y no me imaginaba el tiempo de ripeo, pero bueno, mientras a disfrutar de estos ripeos que aun son buenísimos tanto como un x265 en calidad