La noche antes de Halloween (2016) WEBDL 1080p Latino

1.173 vistas
1 estrella2 estrellas3 estrellas4 estrellas5 estrellas (1 votos, promedio: 3,00 de 5)
Cargando…

Información de La noche antes de Halloween (2016) WEBDL 1080p Latino

Datos de la película

  • Calidad: WEBDL
  • Audio: Español Latino AC3 2.0 iTunes - Ingles AC3 5.1 iTunes
  • Subtitulos: Español Latino SRT - Ingles SRT
  • Resolución: 1916x1076p
  • Formato: MKV
  • Codec: H.264
  • Encoder: Dpelis
  • Mediainfo: Ver Ver
  • The.night.before.halloween.2016.1080p.latino.mkv
    Format                      : Matroska
    Format version              : Version 4 / Version 2
    File size                   : 2.50 GiB
    Duration                    : 1 h 26 min
    Overall bit rate            : 4 123 kb/s
    Movie name                  : DPeliculasHDMega.ORG
    Encoded date                : UTC 2017-05-15 22:12:02 / UTC 2017-05-15T20:28:45Z
    Writing application         : mkvmerge v10.0.0 ('To Drown In You') 64bit
    Writing library             : libebml v1.3.4 + libmatroska v1.4.5 / Lavf57.7.2

    Video
    ID                          : 1
    Format                      : AVC
    Format/Info                 : Advanced Video Codec
    Format profile              : [email protected]
    Format settings, CABAC      : Yes
    Format settings, ReFrames   : 4 frames
    Codec ID                    : V_MPEG4/ISO/AVC
    Duration                    : 1 h 26 min
    Bit rate                    : 3 500 kb/s
    Width                       : 1 906 pixels
    Height                      : 1 072 pixels
    Display aspect ratio        : 16:9
    Frame rate mode             : Constant
    Frame rate                  : 24.000 FPS
    Color space                 : YUV
    Chroma subsampling          : 4:2:0
    Bit depth                   : 8 bits
    Scan type                   : Progressive
    Bits/(Pixel*Frame)          : 0.071
    Stream size                 : 2.06 GiB (82%)
    Writing library             : x264 core 148 r2708 86b7198
    Encoding settings           : cabac=1 / ref=3 / deblock=1:0:0 / analyse=0x3:0x113 / me=hex / subme=7 / psy=1 / psy_rd=1.00:0.00 / mixed_ref=1 / me_range=16 / chroma_me=1 / trellis=1 / 8x8dct=1 / cqm=0 / deadzone=21,11 / fast_pskip=1 / chroma_qp_offset=-2 / threads=12 / lookahead_threads=2 / sliced_threads=0 / nr=0 / decimate=1 / interlaced=0 / bluray_compat=0 / constrained_intra=0 / bframes=3 / b_pyramid=2 / b_adapt=1 / b_bias=0 / direct=1 / weightb=1 / open_gop=0 / weightp=2 / keyint=240 / keyint_min=24 / scenecut=40 / intra_refresh=0 / rc_lookahead=40 / rc=abr / mbtree=1 / bitrate=3500 / ratetol=1.0 / qcomp=0.60 / qpmin=0 / qpmax=69 / qpstep=4 / vbv_maxrate=62500 / vbv_bufsize=78125 / nal_hrd=none / filler=0 / ip_ratio=1.40 / aq=1:1.00
    Default                     : Yes
    Forced                      : No
    Color range                 : Limited
    Color primaries             : BT.709
    Transfer characteristics    : BT.709
    Matrix coefficients         : BT.709
    Statistics Tags Issue       : mkvmerge v10.0.0 ('To Drown In You') 64bit 2017-05-15 22:12:02 / mkvmerge v10.0.0 ('To Drown In You') 64bit 2017-05-15 22:12:02 / UTC 2017-05-15T20:28:45Z
    FromStats_BitRate           : 3481813
    FromStats_Duration          : 01:26:48.542000000
    FromStats_FrameCount        : 125005
    FromStats_StreamSize        : 2266896520

    Audio #1
    ID                          : 2
    Format                      : AC-3
    Format/Info                 : Audio Coding 3
    Format settings, Endianness : Big
    Codec ID                    : A_AC3
    Duration                    : 1 h 26 min
    Bit rate mode               : Constant
    Bit rate                    : 256 kb/s
    Channel(s)                  : 2 channels
    Channel positions           : Front: L R
    Sampling rate               : 48.0 kHz
    Frame rate                  : 31.250 FPS (1536 spf)
    Bit depth                   : 16 bits
    Compression mode            : Lossy
    Delay relative to video     : -5 ms
    Stream size                 : 159 MiB (6%)
    Title                       : Stereo
    Language                    : Spanish
    Service kind                : Complete Main
    Default                     : Yes
    Forced                      : No
    Statistics Tags Issue       : mkvmerge v10.0.0 ('To Drown In You') 64bit 2017-05-15 22:12:02 / mkvmerge v10.0.0 ('To Drown In You') 64bit 2017-05-15 22:12:02 / UTC 2017-05-15T20:28:45Z
    FromStats_BitRate           : 256000
    FromStats_Duration          : 01:26:38.592000000
    FromStats_FrameCount        : 162456
    FromStats_StreamSize        : 166354944

    Audio #2
    ID                          : 3
    Format                      : AC-3
    Format/Info                 : Audio Coding 3
    Format settings, Endianness : Big
    Codec ID                    : A_AC3
    Duration                    : 1 h 26 min
    Bit rate mode               : Constant
    Bit rate                    : 384 kb/s
    Channel(s)                  : 6 channels
    Channel positions           : Front: L C R, Side: L R, LFE
    Sampling rate               : 48.0 kHz
    Frame rate                  : 31.250 FPS (1536 spf)
    Bit depth                   : 16 bits
    Compression mode            : Lossy
    Delay relative to video     : -5 ms
    Stream size                 : 238 MiB (9%)
    Title                       : Surround
    Language                    : English
    Service kind                : Complete Main
    Default                     : No
    Forced                      : No
    Statistics Tags Issue       : mkvmerge v10.0.0 ('To Drown In You') 64bit 2017-05-15 22:12:02 / mkvmerge v10.0.0 ('To Drown In You') 64bit 2017-05-15 22:12:02 / UTC 2017-05-15T20:28:45Z
    FromStats_BitRate           : 384000
    FromStats_Duration          : 01:26:38.624000000
    FromStats_FrameCount        : 162457
    FromStats_StreamSize        : 249533952

    Text #1
    ID                          : 4
    Format                      : UTF-8
    Codec ID                    : S_TEXT/UTF8
    Codec ID/Info               : UTF-8 Plain Text
    Language                    : Spanish
    Default                     : No
    Forced                      : No
    Statistics Tags Issue       : mkvmerge v10.0.0 ('To Drown In You') 64bit 2017-05-15 22:12:02 / mkvmerge v10.0.0 ('To Drown In You') 64bit 2017-05-15 22:12:02 / UTC 2017-05-15T20:28:45Z
    FromStats_BitRate           : 57
    FromStats_Duration          : 01:25:28.670000000
    FromStats_FrameCount        : 1195
    FromStats_StreamSize        : 36695

    Text #2
    ID                          : 5
    Format                      : UTF-8
    Codec ID                    : S_TEXT/UTF8
    Codec ID/Info               : UTF-8 Plain Text
    Title                       : Forzados
    Language                    : Spanish
    Default                     : Yes
    Forced                      : No
    Statistics Tags Issue       : mkvmerge v10.0.0 ('To Drown In You') 64bit 2017-05-15 22:12:02 / mkvmerge v10.0.0 ('To Drown In You') 64bit 2017-05-15 22:12:02 / UTC 2017-05-15T20:28:45Z
    FromStats_BitRate           : 0
    FromStats_Duration          : 00:40:05.933000000
    FromStats_FrameCount        : 11
    FromStats_StreamSize        : 280

    Text #3
    ID                          : 6
    Format                      : UTF-8
    Codec ID                    : S_TEXT/UTF8
    Codec ID/Info               : UTF-8 Plain Text
    Language                    : English
    Default                     : No
    Forced                      : No
    Statistics Tags Issue       : mkvmerge v10.0.0 ('To Drown In You') 64bit 2017-05-15 22:12:02 / mkvmerge v10.0.0 ('To Drown In You') 64bit 2017-05-15 22:12:02 / UTC 2017-05-15T20:28:45Z
    FromStats_BitRate           : 57
    FromStats_Duration          : 01:25:09.609000000
    FromStats_FrameCount        : 1253
    FromStats_StreamSize        : 36716

    Menu
    00:00:00.000                : :Chapter 1
    00:04:56.000                : :Chapter 2
    00:12:10.000                : :Chapter 3
    00:19:16.000                : :Chapter 4
    00:25:26.000                : :Chapter 5
    00:35:46.000                : :Chapter 6
    00:43:01.000                : :Chapter 7
    00:49:12.000                : :Chapter 8
    00:58:17.000                : :Chapter 9
    01:07:23.000                : :Chapter 10
    01:15:06.000                : :Chapter 11
    01:22:29.000                : :Chapter 12

  • Peso: 2.50 GB

Sinopsis

 Descargar La noche antes de Halloween 1080p Latino, Megan y sus amigos están invitados a participar en una broma que accidentalmente deja su amiga de Beth en estado de coma. Lo que Megan y los otros no se dan cuenta de que su nuevo amigo Kyle, tratando deliberadamente de liberarse de la maldición de Carver: una maldición que mata la noche antes de Halloween a menos que no se puede engañar a alguien quien mate a otra persona . Un año más tarde, Megan y sus amigos se reunieron de nuevo y tienen que luchar por sus vidas contra la maldición Carver.

Ficha técnica

Imágenes, Capturas de la película

Video trailer de la película

Enlaces de descarga

Descargar
Descargar La noche antes de Halloween (2016) WEBDL 1080p Latino

dpeliculas

Aportes de DPeliculasHDmega la pass es:dpeliculashdmega.org Aportes de CinemaniaHD la pass es:cinemaniahdd.com
Guardado en : Suspense , Terror

PelícuDelas relacionadas

  • El fugitivo (1993) Full 1080p Latino

    1993
    El fugitivo (1993) Full 1080p Latino

    5.0 2h 13m 1993

    El doctor Richard Kimble es un prestigioso cirujano de Chicago con una vida prácticamente perfecta:...

    Director: Andrew Davis

    Género: Acción

    Actores: Turk Muller

  • Tunnel (2016) 1080p Latino

    2016
    Tunnel (2016) 1080p Latino

    0.0 2h 6m 2016

    Jung-soo se dirige a casa con satisfacción, tras una provechosa jornada de trabajo. Sin embargo, el...

    Director: Kim Seong-hoon

    Género: Drama

    Actores: Park Hyuk-kwon

  • El silencio de los corderos (1991) Full 1080p Latino

    1991
    El silencio de los corderos (1991) Full 1080p Latino

    5.0 1h 58m 1991

    El FBI busca a "Buffalo Bill", un asesino en serie que mata a sus víctimas, todas adolescentes, después...

    Director: Ronald M. Bozman

    Género: Crimen

    Actores: Tracey Walter

  • El imperio de las sombras (2016) 1080p Latino

    2016
    El imperio de las sombras (2016) 1080p Latino

    0.0 2h 20m 2016

    Finales de los años 20, durante la ocupación japonesa de Corea. Un grupo de la resistencia intenta...

    Director: Kim Jee-woon

    Género: Acción

    Actores: Um Tae-goo

Comentarios 0