La momia (2017) Webdl 1080p Sub Latino

2.320 vistas
1 estrella2 estrellas3 estrellas4 estrellas5 estrellas (1 votos, promedio: 4,00 de 5)
Cargando…

Información de La momia (2017) Webdl 1080p Sub Latino

Datos de la película

  • Calidad: WEBDL
  • Audio: Ingles AC3 5.1 iTunes
  • Subtitulos: Español Latino SRT
  • Resolución: 1916x792p
  • Formato: MKV
  • Codec: H.264
  • Encoder: Dpelis
  • Mediainfo: Ver Ver
  • The.Mummy.2017.1080p.WEB-DL.Sub.Latino.mkv
    Format                      : Matroska
    Format version              : Version 4 / Version 2
    File size                   : 3.86 GiB
    Duration                    : 1 h 50 min
    Overall bit rate            : 5 017 kb/s
    Movie name                  : DPeliculasHDMega.ORG
    Encoded date                : UTC 2017-08-03 03:06:05
    Writing application         : mkvmerge v10.0.0 ('To Drown In You') 64bit
    Writing library             : libebml v1.3.4 + libmatroska v1.4.5

    Video
    ID                          : 1
    Format                      : AVC
    Format/Info                 : Advanced Video Codec
    Format profile              : [email protected]
    Format settings, CABAC      : Yes
    Format settings, ReFrames   : 5 frames
    Codec ID                    : V_MPEG4/ISO/AVC
    Duration                    : 1 h 50 min
    Bit rate                    : 4 631 kb/s
    Width                       : 1 916 pixels
    Height                      : 792 pixels
    Display aspect ratio        : 2.40:1
    Frame rate mode             : Constant
    Frame rate                  : 23.976 (23976/1000) FPS
    Color space                 : YUV
    Chroma subsampling          : 4:2:0
    Bit depth                   : 8 bits
    Scan type                   : Progressive
    Bits/(Pixel*Frame)          : 0.127
    Stream size                 : 3.56 GiB (92%)
    Language                    : English
    Default                     : Yes
    Forced                      : No
    Color range                 : Limited
    Color primaries             : BT.709
    Transfer characteristics    : BT.709
    Matrix coefficients         : BT.709

    Audio
    ID                          : 2
    Format                      : AC-3
    Format/Info                 : Audio Coding 3
    Format settings, Endianness : Big
    Codec ID                    : A_AC3
    Duration                    : 1 h 50 min
    Bit rate mode               : Constant
    Bit rate                    : 384 kb/s
    Channel(s)                  : 6 channels
    Channel positions           : Front: L C R, Side: L R, LFE
    Sampling rate               : 48.0 kHz
    Frame rate                  : 31.250 FPS (1536 spf)
    Bit depth                   : 16 bits
    Compression mode            : Lossy
    Stream size                 : 302 MiB (8%)
    Language                    : English
    Service kind                : Complete Main
    Default                     : Yes
    Forced                      : No

    Text #1
    ID                          : 3
    Format                      : UTF-8
    Codec ID                    : S_TEXT/UTF8
    Codec ID/Info               : UTF-8 Plain Text
    Duration                    : 1 h 36 min
    Bit rate                    : 41 b/s
    Count of elements           : 1056
    Stream size                 : 29.4 KiB (0%)
    Title                       : Full
    Language                    : English
    Default                     : No
    Forced                      : No

    Text #2
    ID                          : 4
    Format                      : UTF-8
    Codec ID                    : S_TEXT/UTF8
    Codec ID/Info               : UTF-8 Plain Text
    Duration                    : 1 h 40 min
    Bit rate                    : 44 b/s
    Count of elements           : 1098
    Stream size                 : 33.1 KiB (0%)
    Language                    : Spanish
    Default                     : Yes
    Forced                      : No

    Menu
    00:00:00.000                : en:1
    00:08:19.708                : en:2
    00:13:19.924                : en:3
    00:19:32.463                : en:4
    00:24:41.146                : en:5
    00:28:55.108                : en:6
    00:35:42.390                : en:7
    00:39:37.041                : en:8
    00:47:01.068                : en:9
    00:50:58.638                : en:10
    00:56:50.740                : en:11
    01:00:44.849                : en:12
    01:08:59.009                : en:13
    01:16:04.851                : en:14
    01:19:39.440                : en:15
    01:23:17.407                : en:16
    01:26:27.847                : en:17
    01:33:35.941                : en:18
    01:37:03.982                : en:19
    01:39:48.980                : en:20

  • Peso: 3.86 GB

Sinopsis

Descargar La momia 2017 1080p webdl sub Latino, esta pelicula estara disponible con audio latino final el 22 de Agosto. A pesar de estar enterrada en una tumba en lo más profundo del desierto, una antigua princesa (Sofia Boutella) cuyo destino le fue arrebatado injustamente, se despierta en la época actual, trayendo consigo una maldición que ha crecido hasta límites insospechados con el paso de miles de años.

Ficha técnica

Imágenes, Capturas de la película

Video trailer de la película

Enlaces de descarga

Descargar La momia (2017) Webdl 1080p Sub Latino
Descargar

dpeliculas

Aportes de DPeliculasHDmega la pass es:dpeliculashdmega.org Aportes de CinemaniaHD la pass es:cinemaniahdd.com
Guardado en : Acción , Aventura , Fantasía , Suspense , Terror

PelícuDelas relacionadas

  • Gold la gran estafa (2016) 1080p Latino

    2016
    Gold la gran estafa (2016) 1080p Latino

    0.0 2h 1m 2016

    Descarga Gold hd latino, también conocida La gran estafa 1080p latino Kenny Wells es un fracasado hombre...

    Director: Stephen Gaghan

    Género: Aventura

    Actores: Yothin Mapobphun

  • Juego de Tronos (2016) Temporada 6 Full Latino

    2011/03/17
    Juego de Tronos (2016) Temporada 6 Full Latino

    0.0 60 Min. 2011/03/17

    Descargar gratis Juego de Tronos (2016) Temporada 6 Full Latino Sinopsis capitulo 1: Jon Nieve está...

    Director: David Benioff

    Género: Drama

    Actores: Sophie Turner

  • Juegos de Tronos (2015) Temporada 5 Full Latino

    2011/03/17
    Juegos de Tronos (2015) Temporada 5 Full Latino

    5.0 60 Min. 2011/03/17

    Descargar gratis Juegos de Tronos (2015) Temporada 5 Full Latino  Sinopsis captitulo 1: La reina Cersei...

    Director: David Benioff

    Género: Drama

    Actores: Sophie Turner

Comentarios 3
  • Eduard - 06 Agosto, 2017

    Links caídos, los de drive están caídos, y pregunto si podrían considerar subirlos a mega, Gracias.

    • dpelis

      Administrador
      - 09 Agosto, 2017

      links online

  • ALEJANDRO - 03 Agosto, 2017

    MUCHAS GRACIAS A USTEDES QUE SUBEN LAS PELÍCULAS EN DRIVE Y TODO EL TRABAJO QUE HACEN.