La Leyenda del Pato Sol (2016) 1080p Latino

773 vistas
1 estrella2 estrellas3 estrellas4 estrellas5 estrellas (Ninguna valoración todavía)
Cargando…

Información de La Leyenda del Pato Sol (2016) 1080p Latino

Datos de la película

  • Calidad: 1080p
  • Audio: Español Latino AC3 2.0 Capturado - Ingles AC3 5.1 BLURAY
  • Subtitulos: Español Latino SRT - Ingles SRT
  • Resolución: 1920x1080p
  • Formato: MKV
  • Codec: H.264
  • Encoder: Dpelis
  • Mediainfo: Ver Ver
  • Quackerz 2016 1080p Latino.mkv
    Format                      : Matroska
    Format version              : Version 4 / Version 2
    File size                   : 2.34 GiB
    Duration                    : 1 h 25 min
    Overall bit rate            : 3 893 kb/s
    Movie name                  : DPeliculasHDMega.ORG
    Encoded date                : UTC 2017-06-18 22:48:16 / UTC 2017-06-18T19:11:51Z
    Writing application         : mkvmerge v10.0.0 ('To Drown In You') 64bit
    Writing library             : libebml v1.3.4 + libmatroska v1.4.5 / Lavf57.7.2

    Video
    ID                          : 1
    Format                      : AVC
    Format/Info                 : Advanced Video Codec
    Format profile              : [email protected]
    Format settings, CABAC      : Yes
    Format settings, ReFrames   : 4 frames
    Codec ID                    : V_MPEG4/ISO/AVC
    Duration                    : 1 h 25 min
    Bit rate                    : 3 240 kb/s
    Nominal bit rate            : 3 500 kb/s
    Width                       : 1 920 pixels
    Height                      : 1 080 pixels
    Display aspect ratio        : 16:9
    Frame rate mode             : Constant
    Frame rate                  : 23.976 (24000/1001) FPS
    Color space                 : YUV
    Chroma subsampling          : 4:2:0
    Bit depth                   : 8 bits
    Scan type                   : Progressive
    Bits/(Pixel*Frame)          : 0.065
    Stream size                 : 1.94 GiB (83%)
    Writing library             : x264 core 148 r2708 86b7198
    Encoding settings           : cabac=1 / ref=3 / deblock=1:0:0 / analyse=0x3:0x113 / me=hex / subme=7 / psy=1 / psy_rd=1.00:0.00 / mixed_ref=1 / me_range=16 / chroma_me=1 / trellis=1 / 8x8dct=1 / cqm=0 / deadzone=21,11 / fast_pskip=1 / chroma_qp_offset=-2 / threads=34 / lookahead_threads=5 / sliced_threads=0 / nr=0 / decimate=1 / interlaced=0 / bluray_compat=0 / constrained_intra=0 / bframes=3 / b_pyramid=2 / b_adapt=1 / b_bias=0 / direct=1 / weightb=1 / open_gop=0 / weightp=2 / keyint=240 / keyint_min=24 / scenecut=40 / intra_refresh=0 / rc_lookahead=40 / rc=2pass / mbtree=1 / bitrate=3500 / ratetol=1.0 / qcomp=0.60 / qpmin=0 / qpmax=69 / qpstep=4 / cplxblur=20.0 / qblur=0.5 / vbv_maxrate=62500 / vbv_bufsize=78125 / nal_hrd=none / filler=0 / ip_ratio=1.40 / aq=1:1.00
    Default                     : Yes
    Forced                      : No
    Color range                 : Limited
    Color primaries             : BT.709
    Transfer characteristics    : BT.709
    Matrix coefficients         : BT.709
    Statistics Tags Issue       : mkvmerge v10.0.0 ('To Drown In You') 64bit 2017-06-18 22:48:16 / mkvmerge v10.0.0 ('To Drown In You') 64bit 2017-06-18 22:48:16 / UTC 2017-06-18T19:11:51Z
    FromStats_BitRate           : 3499810
    FromStats_Duration          : 01:22:00.291000000
    FromStats_FrameCount        : 117969
    FromStats_StreamSize        : 2152510622

    Audio #1
    ID                          : 2
    Format                      : AC-3
    Format/Info                 : Audio Coding 3
    Format settings, Endianness : Big
    Codec ID                    : A_AC3
    Duration                    : 1 h 25 min
    Bit rate mode               : Constant
    Bit rate                    : 192 kb/s
    Channel(s)                  : 2 channels
    Channel positions           : Front: L R
    Sampling rate               : 48.0 kHz
    Frame rate                  : 31.250 FPS (1536 spf)
    Bit depth                   : 16 bits
    Compression mode            : Lossy
    Delay relative to video     : -5 ms
    Stream size                 : 118 MiB (5%)
    Language                    : Spanish
    Service kind                : Complete Main
    Default                     : Yes
    Forced                      : No
    Statistics Tags Issue       : mkvmerge v10.0.0 ('To Drown In You') 64bit 2017-06-18 22:48:16 / mkvmerge v10.0.0 ('To Drown In You') 64bit 2017-06-18 22:48:16 / UTC 2017-06-18T19:11:51Z
    FromStats_BitRate           : 192000
    FromStats_Duration          : 01:22:00.256000000
    FromStats_FrameCount        : 153758
    FromStats_StreamSize        : 118086144

    Audio #2
    ID                          : 3
    Format                      : AC-3
    Format/Info                 : Audio Coding 3
    Format settings, Endianness : Big
    Codec ID                    : A_AC3
    Duration                    : 1 h 25 min
    Bit rate mode               : Constant
    Bit rate                    : 384 kb/s
    Channel(s)                  : 6 channels
    Channel positions           : Front: L C R, Side: L R, LFE
    Sampling rate               : 48.0 kHz
    Frame rate                  : 31.250 FPS (1536 spf)
    Bit depth                   : 16 bits
    Compression mode            : Lossy
    Delay relative to video     : -5 ms
    Stream size                 : 236 MiB (10%)
    Title                       : Surround
    Language                    : English
    Service kind                : Complete Main
    Default                     : No
    Forced                      : No
    Statistics Tags Issue       : mkvmerge v10.0.0 ('To Drown In You') 64bit 2017-06-18 22:48:16 / mkvmerge v10.0.0 ('To Drown In You') 64bit 2017-06-18 22:48:16 / UTC 2017-06-18T19:11:51Z
    FromStats_BitRate           : 384000
    FromStats_Duration          : 01:22:00.256000000
    FromStats_FrameCount        : 153758
    FromStats_StreamSize        : 236172288

    Text #1
    ID                          : 4
    Format                      : UTF-8
    Codec ID                    : S_TEXT/UTF8
    Codec ID/Info               : UTF-8 Plain Text
    Language                    : Spanish
    Default                     : No
    Forced                      : No
    Statistics Tags Issue       : mkvmerge v10.0.0 ('To Drown In You') 64bit 2017-06-18 22:48:16 / mkvmerge v10.0.0 ('To Drown In You') 64bit 2017-06-18 22:48:16 / UTC 2017-06-18T19:11:51Z
    FromStats_BitRate           : 118
    FromStats_Duration          : 01:25:24.826000000
    FromStats_FrameCount        : 1219
    FromStats_StreamSize        : 75676

    Text #2
    ID                          : 5
    Format                      : UTF-8
    Codec ID                    : S_TEXT/UTF8
    Codec ID/Info               : UTF-8 Plain Text
    Language                    : English
    Default                     : No
    Forced                      : No
    Statistics Tags Issue       : mkvmerge v10.0.0 ('To Drown In You') 64bit 2017-06-18 22:48:16 / mkvmerge v10.0.0 ('To Drown In You') 64bit 2017-06-18 22:48:16 / UTC 2017-06-18T19:11:51Z
    FromStats_BitRate           : 59
    FromStats_Duration          : 01:20:20.860000000
    FromStats_FrameCount        : 1217
    FromStats_StreamSize        : 35706

    Text #3
    ID                          : 6
    Format                      : UTF-8
    Codec ID                    : S_TEXT/UTF8
    Codec ID/Info               : UTF-8 Plain Text
    Language                    : Spanish
    Default                     : Yes
    Forced                      : No
    Statistics Tags Issue       : mkvmerge v10.0.0 ('To Drown In You') 64bit 2017-06-18 22:48:16 / mkvmerge v10.0.0 ('To Drown In You') 64bit 2017-06-18 22:48:16 / UTC 2017-06-18T19:11:51Z
    FromStats_BitRate           : 45
    FromStats_Duration          : 00:00:20.100000000
    FromStats_FrameCount        : 1
    FromStats_StreamSize        : 115

    Menu
    00:00:00.000                : :00:00:00.000
    00:10:02.477                : :00:10:02.352
    00:19:13.611                : :00:19:13.611
    00:27:45.164                : :00:27:45.163
    00:37:12.689                : :00:37:12.689
    00:43:12.840                : :00:43:12.840
    00:53:27.746                : :00:53:27.746
    01:01:31.396                : :01:01:31.396
    01:08:48.333                : :01:08:48.333
    01:16:37.134                : :01:16:37.092

  • Peso: 2.24 GB

Sinopsis

Hace muchos años, en una isla lejana, vivía un pato del Sol que protegía a su rebaño de los poderes del mal. El Pato del Sol tenía sus leales guardianes que se aseguraban de que el Sol distribuyera uniformemente su energía en su floreciente tierra. La felicidad continuó hasta que una bruja malvada se enteró de las superpotencias del pato del sol. Se apoderó de los guardianes y robó el pato del sol por el único motivo que toda mujer viviente comprendería: la juventud eterna y la belleza hipnotizante. Hoy, nadie cree en viejas leyendas. Los patos mandarinos residen pacíficamente en su isla y acatan la ley que prescribe “no volar en la isla” y “nunca dejar la isla”. El Emperador es el único que sabe que la leyenda es verdadera y que la próxima generación del Pato del Sol ha nacido. Lo mantiene en estricto secreto, pero la bruja también sabe que la leyenda es verdadera y ella está volviendo para su próxima víctima.

Ficha técnica

  • Titulo original: Quackerz
  • Fecha de lanzamiento: 14-02-2016 (Russia)
  • Director: Victor Lakisov
  • Género: Animación
  • Puntuación: 0.0 0 votos
  • Duración:
    1h 21m

Imágenes, Capturas de la película

Video trailer de la película

Enlaces de descarga

Descargar La Leyenda del Pato Sol (2016) 1080p Latino
Descargar
Descargar

dpeliculas

Aportes de DPeliculasHDmega la pass es:dpeliculashdmega.org Aportes de CinemaniaHD la pass es:cinemaniahdd.com
Guardado en : Animación

PelícuDelas relacionadas

  • Sahara (2017) Full Latino

    2017
    Sahara (2017) Full Latino

    0.0 0h 0m 2017

    Descargar gratis Sahara (2017) Full Latino Mega. Cansados de ser el chivo expiatorio de su comunidad,...

    Director: Pierre Coré

    Género: Animación

    Actores: Vincent Lacoste

  • Sahara (2017) 1080p Latino

    2017
    Sahara (2017) 1080p Latino

    1.0 1h 19m 2017

    Cansado de ser el chivo expiatorio de su comunidad, entreabierta una serpiente y su amigo Pitt, escorpión,...

    Director: Pierre Coré

    Género: Animación

    Actores: Vincent Lacoste

  • Sahara (2017) 720p Latino

    2017
    Sahara (2017) 720p Latino

    0.0 1h 24m 2017

    Descargar Pelicula Sahara 2017 hd 720p latino,Cansados de ser el chivo expiatorio de su comunidad, Ajar...

    Director: Pierre Coré

    Género: Animación

    Actores: Vincent Lacoste

  • Resident Evil Vendetta (2017) WEBDL 1080p Latino

    2017
    Resident Evil Vendetta (2017) WEBDL 1080p Latino

    5.0 1h 37m 2017

    Descargar Pelicula Resident Evil Vendetta WEBDL 1080p Latino, La trama se centra en Rebecca Chambers,...

    Director: Takanori Tsujimoto

    Género: Animación

    Actores: Sam Riegel

Comentarios 0