La La Land Una Historia De Amor (2016) FULL 1080p x265 Latino

910 vistas
1 estrella2 estrellas3 estrellas4 estrellas5 estrellas (1 votos, promedio: 5,00 de 5)
Cargando…

Información de La La Land Una Historia De Amor (2016) FULL 1080p x265 Latino

Datos de la película

  • Calidad: Full 1080p
  • Audio: Español Latino AC3 5.1 BLURAY - Ingles AC3 5.1 BLURAY
  • Subtitulos: Español Latino SRT
  • Resolución: 1920x1080p
  • Formato: MKV
  • Codec: H.265
  • Encoder:
  • Mediainfo: Ver Ver
  • La La Land Una Historia De Amor (2016) 1080p BluRay x265 HEVC Dual Latino.mkv
    Format                      : Matroska
    Format version              : Version 4 / Version 2
    File size                   : 3.23 GiB
    Duration                    : 2 h 7 min
    Overall bit rate            : 3 615 kb/s
    Encoded date                : UTC 2017-04-17 00:15:03
    Writing application         : mkvmerge v9.9.0 ('Pick Up') 64bit
    Writing library             : libebml v1.3.4 + libmatroska v1.4.5

    Video
    ID                          : 1
    Format                      : HEVC
    Format/Info                 : High Efficiency Video Coding
    Format profile              : [email protected]@Main
    Codec ID                    : V_MPEGH/ISO/HEVC
    Duration                    : 2 h 7 min
    Bit rate                    : 2 308 kb/s
    Width                       : 1 920 pixels
    Height                      : 1 080 pixels
    Display aspect ratio        : 16:9
    Frame rate mode             : Constant
    Frame rate                  : 23.976 (24000/1001) FPS
    Color space                 : YUV
    Chroma subsampling          : 4:2:0
    Bit depth                   : 8 bits
    Bits/(Pixel*Frame)          : 0.046
    Stream size                 : 2.06 GiB (64%)
    Writing library             : x265 2.1:[Windows][GCC 5.3.1][64 bit] 8bit
    Encoding settings           : wpp / ctu=64 / min-cu-size=8 / max-tu-size=32 / tu-intra-depth=1 / tu-inter-depth=1 / me=3 / subme=3 / merange=57 / rect / no-amp / max-merge=3 / temporal-mvp / no-early-skip / rskip / rdpenalty=0 / no-tskip / no-tskip-fast / strong-intra-smoothing / no-lossless / no-cu-lossless / no-constrained-intra / no-fast-intra / open-gop / no-temporal-layers / interlace=0 / keyint=240 / min-keyint=24 / scenecut=40 / rc-lookahead=25 / lookahead-slices=4 / bframes=4 / bframe-bias=0 / b-adapt=2 / ref=4 / limit-refs=3 / limit-modes / weightp / no-weightb / aq-mode=1 / qg-size=32 / aq-strength=1.00 / cbqpoffs=0 / crqpoffs=0 / rd=4 / psy-rd=2.00 / rdoq-level=2 / psy-rdoq=1.00 / log2-max-poc-lsb=8 / no-rd-refine / signhide / deblock=0:0 / sao / no-sao-non-deblock / b-pyramid / cutree / no-intra-refresh / rc=crf / crf=20.0 / qcomp=0.60 / qpmin=0 / qpmax=69 / qpstep=4 / ipratio=1.40 / pbratio=1.30
    Default                     : Yes
    Forced                      : No
    Color range                 : Limited
    Color primaries             : BT.709
    Transfer characteristics    : BT.709
    Matrix coefficients         : BT.709

    Audio #1
    ID                          : 2
    Format                      : AC-3
    Format/Info                 : Audio Coding 3
    Format settings, Endianness : Big
    Codec ID                    : A_AC3
    Duration                    : 2 h 7 min
    Bit rate mode               : Constant
    Bit rate                    : 640 kb/s
    Channel(s)                  : 6 channels
    Channel positions           : Front: L C R, Side: L R, LFE
    Sampling rate               : 48.0 kHz
    Frame rate                  : 31.250 FPS (1536 spf)
    Bit depth                   : 16 bits
    Compression mode            : Lossy
    Stream size                 : 585 MiB (18%)
    Title                       : Español Latino AC3 5.1 [640 Kbps]
    Language                    : Spanish
    Service kind                : Complete Main
    Default                     : Yes
    Forced                      : No

    Audio #2
    ID                          : 3
    Format                      : AC-3
    Format/Info                 : Audio Coding 3
    Format settings, Endianness : Big
    Codec ID                    : A_AC3
    Duration                    : 2 h 7 min
    Bit rate mode               : Constant
    Bit rate                    : 640 kb/s
    Channel(s)                  : 6 channels
    Channel positions           : Front: L C R, Side: L R, LFE
    Sampling rate               : 48.0 kHz
    Frame rate                  : 31.250 FPS (1536 spf)
    Bit depth                   : 16 bits
    Compression mode            : Lossy
    Stream size                 : 585 MiB (18%)
    Title                       : Inglés AC3 5.1 [640 Kbps]
    Language                    : English
    Service kind                : Complete Main
    Default                     : No
    Forced                      : No

    Text #1
    ID                          : 4
    Format                      : UTF-8
    Codec ID                    : S_TEXT/UTF8
    Codec ID/Info               : UTF-8 Plain Text
    Duration                    : 1 h 52 min
    Bit rate                    : 10 b/s
    Count of elements           : 258
    Stream size                 : 8.91 KiB (0%)
    Title                       : Subtítulos Español Latino - Forzados [SRT]
    Language                    : Spanish
    Default                     : No
    Forced                      : Yes

    Text #2
    ID                          : 5
    Format                      : UTF-8
    Codec ID                    : S_TEXT/UTF8
    Codec ID/Info               : UTF-8 Plain Text
    Duration                    : 2 h 1 min
    Bit rate                    : 45 b/s
    Count of elements           : 1162
    Stream size                 : 40.0 KiB (0%)
    Title                       : Subtítulos Español Latino [SRT]
    Language                    : Spanish
    Default                     : No
    Forced                      : No

    Text #3
    ID                          : 6
    Format                      : PGS
    Codec ID                    : S_HDMV/PGS
    Codec ID/Info               : Picture based subtitle format used on BDs/HD-DVDs
    Duration                    : 2 h 1 min
    Bit rate                    : 25.8 kb/s
    Count of elements           : 2326
    Stream size                 : 22.4 MiB (1%)
    Title                       : Subtítulos Español Latino [PGS]
    Language                    : Spanish
    Default                     : No
    Forced                      : No

    Menu
    00:00:00.000                : :Chapter 1
    00:07:06.927                : :Chapter 2
    00:17:30.883                : :Chapter 3
    00:26:05.856                : :Chapter 4
    00:31:14.039                : :Chapter 5
    00:39:29.075                : :Chapter 6
    00:46:17.566                : :Chapter 7
    00:52:11.170                : :Chapter 8
    00:58:50.360                : :Chapter 9
    01:05:58.580                : :Chapter 10
    01:13:01.294                : :Chapter 11
    01:24:16.301                : :Chapter 12
    01:31:50.880                : :Chapter 13
    01:41:10.982                : :Chapter 14
    01:46:07.611                : :Chapter 15
    01:56:19.598                : :Chapter 16

  • Peso: 3.23 GB

Sinopsis

Mientras Mia, una aspirate a actriz, sirve cafés a estrellas de cine, Sebastian un Músico de jazz, se gana la vida tocando en sucios bares. Tras algunos encuentros inesperados, las chispas entre ellos estallan. Pero la lucha por conseguir lo que quieren amenaza con separarlos.

Ficha técnica

Imágenes, Capturas de la película

Video trailer de la película

Enlaces de descarga

Descargar
Descargar La La Land Una Historia De Amor (2016) FULL 1080p x265 Latino
Descargar

dpeliculas

Aportes de DPeliculasHDmega la pass es:dpeliculashdmega.org Aportes de CinemaniaHD la pass es:cinemaniahdd.com

PelícuDelas relacionadas

  • T2 Trainspotting (2017) Full 1080p Latino

    2017
    T2 Trainspotting (2017) Full 1080p Latino

    0.0 1h 57m 2017

    Han pasado 20 años desde que Mark Renton abandonara Escocia, y la heroína. Ahora, Renton vuelve a su...

    Director: Sylvia Parker

    Género: Crimen

    Actores: Tom Urie

  • Potosí (2013) WEBDL 1080p Latino

    2013
    Potosí (2013) WEBDL 1080p Latino

    0.0 0h 0m 2013

    Este largometraje con Alfredo Castruita en la dirección se estrenó en 2013 en festivales pero no ha...

    Director: Alfredo Castruita

    Género: Crimen

    Actores: Sonia Couoh

  • Sahara (2017) 1080p Latino

    2017
    Sahara (2017) 1080p Latino

    1.0 1h 19m 2017

    Cansado de ser el chivo expiatorio de su comunidad, entreabierta una serpiente y su amigo Pitt, escorpión,...

    Director: Pierre Coré

    Género: Animación

    Actores: Vincent Lacoste

  • Sahara (2017) 720p Latino

    2017
    Sahara (2017) 720p Latino

    0.0 1h 24m 2017

    Descargar Pelicula Sahara 2017 hd 720p latino,Cansados de ser el chivo expiatorio de su comunidad, Ajar...

    Director: Pierre Coré

    Género: Animación

    Actores: Vincent Lacoste

  • La casa de la esperanza (2017) Full 1080p Latino

    2017
    La casa de la esperanza (2017) Full 1080p Latino

    0.0 2h 4m 2017

    Descargar La casa de la esperanza  hd full 1080p latino, Cuando Alemania invadió Polonia, los bombarderos...

    Director: Niki Caro

    Género: Drama

    Actores: Val Maloku

Comentarios 2