La gran muralla (2016) 1080p Latino

5.251 vistas
1 estrella2 estrellas3 estrellas4 estrellas5 estrellas (1 votos, promedio: 5,00 de 5)
Cargando…

Información de La gran muralla (2016) 1080p Latino

la gran muralla 1080p latino

Datos de la película

  • Calidad: 1080p
  • Audio: Español Latino AC3 5.1 BLURAY - Ingles AC3 5.1 BLURAY
  • Subtitulos: Español Latino SRT - Ingles SRT
  • Resolución: 1920x806p
  • Formato: MKV
  • Codec: H.264
  • Encoder: Dpelis
  • Mediainfo: Ver Ver
  • The.great.wall.2016.1080p.latino.mkv
    Format                      : Matroska
    Format version              : Version 4 / Version 2
    File size                   : 3.06 GiB
    Duration                    : 1 h 43 min
    Overall bit rate            : 4 247 kb/s
    Encoded date                : UTC 2017-05-10 10:51:23 / UTC 2017-05-10T03:58:59Z
    Writing application         : mkvmerge v10.0.0 ('To Drown In You') 64bit
    Writing library             : libebml v1.3.4 + libmatroska v1.4.5 / Lavf57.7.2

    Video
    ID                          : 1
    Format                      : AVC
    Format/Info                 : Advanced Video Codec
    Format profile              : [email protected]
    Format settings, CABAC      : Yes
    Format settings, ReFrames   : 4 frames
    Codec ID                    : V_MPEG4/ISO/AVC
    Duration                    : 1 h 43 min
    Bit rate                    : 3 500 kb/s
    Width                       : 1 920 pixels
    Height                      : 806 pixels
    Display aspect ratio        : 2.40:1
    Frame rate mode             : Constant
    Frame rate                  : 23.976 (24000/1001) FPS
    Color space                 : YUV
    Chroma subsampling          : 4:2:0
    Bit depth                   : 8 bits
    Scan type                   : Progressive
    Bits/(Pixel*Frame)          : 0.094
    Stream size                 : 2.44 GiB (80%)
    Writing library             : x264 core 148 r2708 86b7198
    Encoding settings           : cabac=1 / ref=3 / deblock=1:0:0 / analyse=0x3:0x113 / me=hex / subme=7 / psy=1 / psy_rd=1.00:0.00 / mixed_ref=1 / me_range=16 / chroma_me=1 / trellis=1 / 8x8dct=1 / cqm=0 / deadzone=21,11 / fast_pskip=1 / chroma_qp_offset=-2 / threads=12 / lookahead_threads=2 / sliced_threads=0 / nr=0 / decimate=1 / interlaced=0 / bluray_compat=0 / constrained_intra=0 / bframes=3 / b_pyramid=2 / b_adapt=1 / b_bias=0 / direct=1 / weightb=1 / open_gop=0 / weightp=2 / keyint=240 / keyint_min=24 / scenecut=40 / intra_refresh=0 / rc_lookahead=40 / rc=abr / mbtree=1 / bitrate=3500 / ratetol=1.0 / qcomp=0.60 / qpmin=0 / qpmax=69 / qpstep=4 / vbv_maxrate=62500 / vbv_bufsize=78125 / nal_hrd=none / filler=0 / ip_ratio=1.40 / aq=1:1.00
    Default                     : Yes
    Forced                      : No
    Color range                 : Limited
    Color primaries             : BT.709
    Transfer characteristics    : BT.709
    Matrix coefficients         : BT.709
    Statistics Tags Issue       : mkvmerge v10.0.0 ('To Drown In You') 64bit 2017-05-10 10:51:23 / mkvmerge v10.0.0 ('To Drown In You') 64bit 2017-05-10 10:51:23 / UTC 2017-05-10T03:58:59Z
    FromStats_BitRate           : 3477060
    FromStats_Duration          : 01:43:03.344000000
    FromStats_FrameCount        : 148252
    FromStats_StreamSize        : 2687482950

    Audio #1
    ID                          : 2
    Format                      : AC-3
    Format/Info                 : Audio Coding 3
    Format settings, Endianness : Big
    Codec ID                    : A_AC3
    Duration                    : 1 h 43 min
    Bit rate mode               : Constant
    Bit rate                    : 384 kb/s
    Channel(s)                  : 6 channels
    Channel positions           : Front: L C R, Side: L R, LFE
    Sampling rate               : 48.0 kHz
    Frame rate                  : 31.250 FPS (1536 spf)
    Bit depth                   : 16 bits
    Compression mode            : Lossy
    Delay relative to video     : -5 ms
    Stream size                 : 283 MiB (9%)
    Title                       : Surround
    Language                    : Spanish
    Service kind                : Complete Main
    Default                     : Yes
    Forced                      : No
    Statistics Tags Issue       : mkvmerge v10.0.0 ('To Drown In You') 64bit 2017-05-10 10:51:23 / mkvmerge v10.0.0 ('To Drown In You') 64bit 2017-05-10 10:51:23 / UTC 2017-05-10T03:58:59Z
    FromStats_BitRate           : 384000
    FromStats_Duration          : 01:43:03.328000000
    FromStats_FrameCount        : 193229
    FromStats_StreamSize        : 296799744

    Audio #2
    ID                          : 3
    Format                      : AC-3
    Format/Info                 : Audio Coding 3
    Format settings, Endianness : Big
    Codec ID                    : A_AC3
    Duration                    : 1 h 43 min
    Bit rate mode               : Constant
    Bit rate                    : 384 kb/s
    Channel(s)                  : 6 channels
    Channel positions           : Front: L C R, Side: L R, LFE
    Sampling rate               : 48.0 kHz
    Frame rate                  : 31.250 FPS (1536 spf)
    Bit depth                   : 16 bits
    Compression mode            : Lossy
    Delay relative to video     : -5 ms
    Stream size                 : 283 MiB (9%)
    Title                       : Surround
    Language                    : English
    Service kind                : Complete Main
    Default                     : No
    Forced                      : No
    Statistics Tags Issue       : mkvmerge v10.0.0 ('To Drown In You') 64bit 2017-05-10 10:51:23 / mkvmerge v10.0.0 ('To Drown In You') 64bit 2017-05-10 10:51:23 / UTC 2017-05-10T03:58:59Z
    FromStats_BitRate           : 384000
    FromStats_Duration          : 01:43:03.328000000
    FromStats_FrameCount        : 193229
    FromStats_StreamSize        : 296799744

    Text #1
    ID                          : 4
    Format                      : UTF-8
    Codec ID                    : S_TEXT/UTF8
    Codec ID/Info               : UTF-8 Plain Text
    Language                    : Spanish
    Default                     : Yes
    Forced                      : No
    Statistics Tags Issue       : mkvmerge v10.0.0 ('To Drown In You') 64bit 2017-05-10 10:51:23 / mkvmerge v10.0.0 ('To Drown In You') 64bit 2017-05-10 10:51:23 / UTC 2017-05-10T03:58:59Z
    FromStats_BitRate           : 31
    FromStats_Duration          : 01:34:15.241000000
    FromStats_FrameCount        : 860
    FromStats_StreamSize        : 22298

    Text #2
    ID                          : 5
    Format                      : UTF-8
    Codec ID                    : S_TEXT/UTF8
    Codec ID/Info               : UTF-8 Plain Text
    Title                       : Forzados
    Language                    : Spanish
    Default                     : No
    Forced                      : No
    Statistics Tags Issue       : mkvmerge v10.0.0 ('To Drown In You') 64bit 2017-05-10 10:51:23 / mkvmerge v10.0.0 ('To Drown In You') 64bit 2017-05-10 10:51:23 / UTC 2017-05-10T03:58:59Z
    FromStats_BitRate           : 1
    FromStats_Duration          : 01:34:15.240000000
    FromStats_FrameCount        : 56
    FromStats_StreamSize        : 1370

    Text #3
    ID                          : 6
    Format                      : UTF-8
    Codec ID                    : S_TEXT/UTF8
    Codec ID/Info               : UTF-8 Plain Text
    Language                    : English
    Default                     : No
    Forced                      : No
    Statistics Tags Issue       : mkvmerge v10.0.0 ('To Drown In You') 64bit 2017-05-10 10:51:23 / mkvmerge v10.0.0 ('To Drown In You') 64bit 2017-05-10 10:51:23 / UTC 2017-05-10T03:58:59Z
    FromStats_BitRate           : 23
    FromStats_Duration          : 01:28:41.120000000
    FromStats_FrameCount        : 598
    FromStats_StreamSize        : 15721

    Menu
    00:00:00.000                : :00:00:00.000
    00:05:58.358                : :00:05:58.358
    00:11:47.540                : :00:11:47.540
    00:16:53.679                : :00:16:53.679
    00:20:13.254                : :00:20:13.254
    00:25:11.010                : :00:25:11.009
    00:28:55.317                : :00:28:55.317
    00:33:57.744                : :00:33:57.744
    00:37:54.147                : :00:37:54.147
    00:42:42.935                : :00:42:42.935
    00:46:18.943                : :00:46:18.943
    00:50:27.691                : :00:50:27.691
    00:56:46.069                : :00:56:46.069
    01:01:58.048                : :01:01:58.048
    01:07:12.820                : :01:07:12.820
    01:12:08.533                : :01:12:08.533
    01:18:20.863                : :01:18:20.863
    01:23:25.083                : :01:23:25.083
    01:27:26.158                : :01:27:26.158
    01:31:14.386                : :01:31:14.386

  • Peso: 3.06 GB

Sinopsis

Descargar Película La Gran Muralla 1080p Latino, también conocida como The Great Wall, El protagonista de la estrella mundial Matt Damon y dirigida por uno de los mejores diseñadores visuales de nuestro tiempo, Zhang Yimou (Hero, Casa de las dagas voladoras), la gran pared de Legendary cuenta la historia de la humanidad a los medios de fuerza de élite valiente en el mundo. más estructura característica. La primera producción en Inglés Yimou es la mejor película jamás hecha enteramente en China. Gran Muraglia Jing Tian también estrellas, Pedro Pascal, Willem Dafoe y Andy Lau.

Ficha técnica

  • Titulo original: The Great Wall
  • Fecha de lanzamiento: 16-12-2016 (Australia, Canada, China, Hong Kong, United States of America)
  • Director: Zhang Yimou
  • Género: Acción, Aventura, Fantasía
  • Puntuación: 5.0 1 votos
  • Duración:
    1h 43m

Imágenes, Capturas de la película

Video trailer de la película

Enlaces de descarga

Descargar La gran muralla (2016) 1080p Latino
Descargar
Descargar La gran muralla (2016) 1080p Latino

dpeliculas

Aportes de DPeliculasHDmega la pass es:dpeliculashdmega.org Aportes de CinemaniaHD la pass es:cinemaniahdd.com
Guardado en : Acción , Aventura , Fantasía

PelícuDelas relacionadas

  • Gold la gran estafa (2016) 1080p Latino

    2016
    Gold la gran estafa (2016) 1080p Latino

    0.0 2h 1m 2016

    Descarga Gold hd latino, también conocida La gran estafa 1080p latino Kenny Wells es un fracasado hombre...

    Director: Stephen Gaghan

    Género: Aventura

    Actores: Yothin Mapobphun

  • Juego de Tronos (2016) Temporada 6 Full Latino

    2011/03/17
    Juego de Tronos (2016) Temporada 6 Full Latino

    0.0 60 Min. 2011/03/17

    Descargar gratis Juego de Tronos (2016) Temporada 6 Full Latino Sinopsis capitulo 1: Jon Nieve está...

    Director: David Benioff

    Género: Drama

    Actores: Sophie Turner

  • Juegos de Tronos (2015) Temporada 5 Full Latino

    2011/03/17
    Juegos de Tronos (2015) Temporada 5 Full Latino

    5.0 60 Min. 2011/03/17

    Descargar gratis Juegos de Tronos (2015) Temporada 5 Full Latino  Sinopsis captitulo 1: La reina Cersei...

    Director: David Benioff

    Género: Drama

    Actores: Sophie Turner

Comentarios 11
  • Francisco - 25 Mayo, 2017

    No puedo descargar el rip del blu-ray le doy al enlace publico y me dice que el id es invalido

    • dpelis

      Administrador
      - 25 Mayo, 2017

      reparado

  • . - 11 Mayo, 2017

    Gracias..!!

  • Matias - 10 Mayo, 2017

    Muchas Gracias DPeliculasHDMega !!! Son lo mejor… Salu2

  • Eduardo - 10 Mayo, 2017

    Que raro, shink.in no pone el cuadro del captcha… (ojala sea error temporal de shink.in)
    Saludos y gracias Dpelis!!

    • dpelis

      Administrador
      - 10 Mayo, 2017

      probar de nuevo estimado

    • Eduardo - 11 Mayo, 2017

      Lo resolvi rapido, curiosamente fue un cambio de dns en el modem de mi proveedor de internet hace una semana… raro, pero encontre el problema y quedo resuelto, sin problemas para bajar peliculas, muchas gracias.

  • Sergio - 09 Mayo, 2017

    Excelente página me encantó sigan así, dpeliculashdmega

  • Pablo - 09 Mayo, 2017

    Muchas gracias Dpelis!!!. Saludos!!

  • Ezequias - 13 Abril, 2017

    Tanta molesta publlicidad para descargar y cuando voy a tomar el titulo por completo… “-Sub- Latino”, que joder y que molestia.

    Nah, muchas gracias.
    Esperando desde ya el latino.

    • dpelis

      Administrador
      - 17 Abril, 2017

      su mensaje no tiene sentido, si antes descargar puede leer le descripcion si es latino o sub latino.