La Cura Siniestra (2017) Full 1080p Latino

2.588 vistas
1 estrella2 estrellas3 estrellas4 estrellas5 estrellas (1 votos, promedio: 4,00 de 5)
Cargando…

Información de La Cura Siniestra (2017) Full 1080p Latino

Datos de la película

  • Calidad: 1080p
  • Audio: Español Latino AC3 5.1 BLURAY - Ingles AC3 5.1 BLURAY
  • Subtitulos: Español Latino SRT - Ingles SRT
  • Resolución: 1920x1080p
  • Formato: MKV
  • Codec: H.264
  • Encoder: Dpelis
  • Mediainfo: Ver Ver
  • A.cure.for.wellness.2016.full.1080p.Latino.mkv
    Format                      : Matroska
    Format version              : Version 4 / Version 2
    File size                   : 4.35 GiB
    Duration                    : 2 h 26 min
    Overall bit rate            : 4 246 kb/s
    Movie name                  : DPeliculasHDMega,ORG
    Encoded date                : UTC 2017-05-27 19:22:04 / UTC 2017-05-27T17:17:28Z
    Writing application         : mkvmerge v10.0.0 ('To Drown In You') 64bit
    Writing library             : libebml v1.3.4 + libmatroska v1.4.5 / Lavf57.7.2

    Video
    ID                          : 1
    Format                      : AVC
    Format/Info                 : Advanced Video Codec
    Format profile              : [email protected]
    Format settings, CABAC      : Yes
    Format settings, ReFrames   : 4 frames
    Codec ID                    : V_MPEG4/ISO/AVC
    Duration                    : 2 h 26 min
    Bit rate                    : 3 500 kb/s
    Width                       : 1 920 pixels
    Height                      : 1 080 pixels
    Display aspect ratio        : 16:9
    Frame rate mode             : Constant
    Frame rate                  : 23.976 (24000/1001) FPS
    Color space                 : YUV
    Chroma subsampling          : 4:2:0
    Bit depth                   : 8 bits
    Scan type                   : Progressive
    Bits/(Pixel*Frame)          : 0.070
    Stream size                 : 3.47 GiB (80%)
    Writing library             : x264 core 148 r2708 86b7198
    Encoding settings           : cabac=1 / ref=3 / deblock=1:0:0 / analyse=0x3:0x113 / me=hex / subme=7 / psy=1 / psy_rd=1.00:0.00 / mixed_ref=1 / me_range=16 / chroma_me=1 / trellis=1 / 8x8dct=1 / cqm=0 / deadzone=21,11 / fast_pskip=1 / chroma_qp_offset=-2 / threads=12 / lookahead_threads=2 / sliced_threads=0 / nr=0 / decimate=1 / interlaced=0 / bluray_compat=0 / constrained_intra=0 / bframes=3 / b_pyramid=2 / b_adapt=1 / b_bias=0 / direct=1 / weightb=1 / open_gop=0 / weightp=2 / keyint=240 / keyint_min=24 / scenecut=40 / intra_refresh=0 / rc_lookahead=40 / rc=abr / mbtree=1 / bitrate=3500 / ratetol=1.0 / qcomp=0.60 / qpmin=0 / qpmax=69 / qpstep=4 / vbv_maxrate=62500 / vbv_bufsize=78125 / nal_hrd=none / filler=0 / ip_ratio=1.40 / aq=1:1.00
    Default                     : Yes
    Forced                      : No
    Color range                 : Limited
    Color primaries             : BT.709
    Transfer characteristics    : BT.709
    Matrix coefficients         : BT.709
    Statistics Tags Issue       : mkvmerge v10.0.0 ('To Drown In You') 64bit 2017-05-27 19:22:04 / mkvmerge v10.0.0 ('To Drown In You') 64bit 2017-05-27 19:22:04 / UTC 2017-05-27T17:17:28Z
    FromStats_BitRate           : 3475404
    FromStats_Duration          : 02:26:33.327000000
    FromStats_FrameCount        : 210829
    FromStats_StreamSize        : 3820046050

    Audio #1
    ID                          : 2
    Format                      : AC-3
    Format/Info                 : Audio Coding 3
    Format settings, Endianness : Big
    Codec ID                    : A_AC3
    Duration                    : 2 h 26 min
    Bit rate mode               : Constant
    Bit rate                    : 384 kb/s
    Channel(s)                  : 6 channels
    Channel positions           : Front: L C R, Side: L R, LFE
    Sampling rate               : 48.0 kHz
    Frame rate                  : 31.250 FPS (1536 spf)
    Bit depth                   : 16 bits
    Compression mode            : Lossy
    Delay relative to video     : -5 ms
    Stream size                 : 403 MiB (9%)
    Language                    : Spanish
    Service kind                : Complete Main
    Default                     : Yes
    Forced                      : No
    Statistics Tags Issue       : mkvmerge v10.0.0 ('To Drown In You') 64bit 2017-05-27 19:22:04 / mkvmerge v10.0.0 ('To Drown In You') 64bit 2017-05-27 19:22:04 / UTC 2017-05-27T17:17:28Z
    FromStats_BitRate           : 384000
    FromStats_Duration          : 02:26:33.472000000
    FromStats_FrameCount        : 274796
    FromStats_StreamSize        : 422086656

    Audio #2
    ID                          : 3
    Format                      : AC-3
    Format/Info                 : Audio Coding 3
    Format settings, Endianness : Big
    Codec ID                    : A_AC3
    Duration                    : 2 h 26 min
    Bit rate mode               : Constant
    Bit rate                    : 384 kb/s
    Channel(s)                  : 6 channels
    Channel positions           : Front: L C R, Side: L R, LFE
    Sampling rate               : 48.0 kHz
    Frame rate                  : 31.250 FPS (1536 spf)
    Bit depth                   : 16 bits
    Compression mode            : Lossy
    Delay relative to video     : -5 ms
    Stream size                 : 403 MiB (9%)
    Title                       : Surround
    Language                    : English
    Service kind                : Complete Main
    Default                     : No
    Forced                      : No
    Statistics Tags Issue       : mkvmerge v10.0.0 ('To Drown In You') 64bit 2017-05-27 19:22:04 / mkvmerge v10.0.0 ('To Drown In You') 64bit 2017-05-27 19:22:04 / UTC 2017-05-27T17:17:28Z
    FromStats_BitRate           : 384000
    FromStats_Duration          : 02:26:33.408000000
    FromStats_FrameCount        : 274794
    FromStats_StreamSize        : 422083584

    Text #1
    ID                          : 4
    Format                      : UTF-8
    Codec ID                    : S_TEXT/UTF8
    Codec ID/Info               : UTF-8 Plain Text
    Language                    : Spanish
    Default                     : No
    Forced                      : No
    Statistics Tags Issue       : mkvmerge v10.0.0 ('To Drown In You') 64bit 2017-05-27 19:22:04 / mkvmerge v10.0.0 ('To Drown In You') 64bit 2017-05-27 19:22:04 / UTC 2017-05-27T17:17:28Z
    FromStats_BitRate           : 33
    FromStats_Duration          : 02:18:12.778000000
    FromStats_FrameCount        : 1204
    FromStats_StreamSize        : 35105

    Text #2
    ID                          : 5
    Format                      : UTF-8
    Codec ID                    : S_TEXT/UTF8
    Codec ID/Info               : UTF-8 Plain Text
    Title                       : Forzados
    Language                    : Spanish
    Default                     : Yes
    Forced                      : No
    Statistics Tags Issue       : mkvmerge v10.0.0 ('To Drown In You') 64bit 2017-05-27 19:22:04 / mkvmerge v10.0.0 ('To Drown In You') 64bit 2017-05-27 19:22:04 / UTC 2017-05-27T17:17:28Z
    FromStats_BitRate           : 0
    FromStats_Duration          : 00:59:51.212000000
    FromStats_FrameCount        : 3
    FromStats_StreamSize        : 68

    Text #3
    ID                          : 6
    Format                      : UTF-8
    Codec ID                    : S_TEXT/UTF8
    Codec ID/Info               : UTF-8 Plain Text
    Language                    : English
    Default                     : No
    Forced                      : No
    Statistics Tags Issue       : mkvmerge v10.0.0 ('To Drown In You') 64bit 2017-05-27 19:22:04 / mkvmerge v10.0.0 ('To Drown In You') 64bit 2017-05-27 19:22:04 / UTC 2017-05-27T17:17:28Z
    FromStats_BitRate           : 34
    FromStats_Duration          : 02:17:35.070000000
    FromStats_FrameCount        : 1314
    FromStats_StreamSize        : 35660

    Menu
    00:00:00.000                : :00:00:00.000
    00:03:37.092                : :00:03:37.092
    00:09:18.349                : :00:09:18.349
    00:13:22.343                : :00:13:22.343
    00:16:55.681                : :00:16:55.681
    00:22:49.910                : :00:22:49.910
    00:27:42.035                : :00:27:42.035
    00:32:01.878                : :00:32:01.878
    00:38:23.843                : :00:38:23.843
    00:44:51.397                : :00:44:51.397
    00:51:22.162                : :00:51:22.162
    00:56:50.782                : :00:56:50.782
    01:01:31.062                : :01:01:31.062
    01:08:08.293                : :01:08:08.293
    01:13:12.221                : :01:13:12.221
    01:17:02.284                : :01:17:02.284
    01:21:08.447                : :01:21:08.447
    01:25:17.195                : :01:25:17.195
    01:29:20.355                : :01:29:20.355
    01:34:59.277                : :01:34:59.277
    01:40:19.514                : :01:40:19.513
    01:43:49.181                : :01:43:49.181
    01:47:46.794                : :01:47:46.794
    01:52:30.661                : :01:52:30.661
    01:56:30.775                : :01:56:30.775
    02:04:22.121                : :02:04:22.121
    02:09:17.458                : :02:09:17.458
    02:19:59.182                : :02:19:59.057

  • Peso: 4.35 GB

Sinopsis

A Cure Wellness 1080p Latino también conocida como La cura del bienestar hd Lockhart (Dane DeHaan) es un ejecutivo joven y ambicioso, que se ve obligado a viajar a un lugar remoto, en los Alpes suizos. Su misión es traer de vuelta la cabeza de su compañía, que es el Instituto Volmer, un centro de bienestar. Pero este centro de terapias, que a primera vista parece idílico, muy misterioso y tiene un oscuro secreto que impiden Lockhart conseguir fácilmente fuera de allí.

Las sospechas de los jóvenes pronto descubren que los tratamientos de spa milagrosos no son lo que parecen. Y el Dr. Volmer (meta Jason Isaacs), director de la clínica, son mucho más siniestro que simplemente satisfacer las necesidades y el cuidado de sus pacientes. salud mental juvenil se pondrá a prueba cuando se empieza a desentrañar los secretos terribles que se ocultan allí y ser diagnosticados con la misma extraña enfermedad que continúa pacientes en espera de una cura.

Ficha técnica

Imágenes, Capturas de la película

Video trailer de la película

Enlaces de descarga

Descargar La Cura Siniestra (2017) Full 1080p Latino
Descargar

dpeliculas

Aportes de DPeliculasHDmega la pass es:dpeliculashdmega.org Aportes de CinemaniaHD la pass es:cinemaniahdd.com

PelícuDelas relacionadas

  • It – Eso (1990) WEBDL 1080p Latino

    1990
    It – Eso (1990) WEBDL 1080p Latino

    0.0 3h 7m 1990

    Descargar Stephen King's It  hd latino, tambien conocida como It o ESO Un tranquilo y pequeño pueblo...

    Director: Tommy Lee Wallace

    Género: Drama

    Actores: Tim Reid

  • The Recall (2017) 1080p Latino

    2017
    The Recall (2017) 1080p Latino

    0.0 1h 31m 2017

    The Recall Latino empieza como si de un slasher juvenil se tratase, con un grupo de amigos de vacaciones...

    Director: Mauro Borreli

    Género: Ciencia ficción

    Actores: Wesley Snipes

  • The Walking Dead (2017) Temporada 7 Full Latino

    2016
    The Walking Dead (2017) Temporada 7 Full Latino

    0.0 0h 42m 2016

    Descarga The Walking Dead Temporada 7 hd latino, Hasta este punto, nuestros personajes han vivido a través...

    Director: Frank Darabont

    Género: Drama

    Actores: Norman Reedus

  • La momia (2017) Webdl 1080p Latino

    2017
    La momia (2017) Webdl 1080p Latino

    4.0 1h 50m 2017

    Descargar La momia 2017 1080p webdl  Latino, esta pelicula estara disponible con audio latino final...

    Director: Jo Beckett

    Género: Acción

    Actores: Vera Chok

Comentarios 4
  • rodigolofonte - 29 Mayo, 2017

    muchas gracias, tiene una sinopsis interesante, pero en en mediainfo dice subs srt pero en la info general dice subs PGS solo ese detalle note.
    Una cosa mas aunque no es un problema no se si los links podrian ser de una tamaño más amigable como de 1 gb o 1.5gb.

    • dpelis

      Administrador
      - 29 Mayo, 2017

      si fue error. todo depende de la duracion de la pelicula.

  • dariokk - 27 Mayo, 2017

    Gracias ,muy buen aporte , Stas a full xddd SALUDOS

    • dpelis

      Administrador
      - 27 Mayo, 2017

      😀 . saludos