La ciudad perdida Z (2017) 1080p Latino

1.882 vistas
1 estrella2 estrellas3 estrellas4 estrellas5 estrellas (1 votos, promedio: 1,00 de 5)
Cargando…

Información de La ciudad perdida Z (2017) 1080p Latino

Datos de la película

  • Calidad: 1080p
  • Audio: Español Latino AC3 5.1 DVD - Ingles AC3 5.1 BLURAY
  • Subtitulos: Español Latino SRT - Ingles SRT
  • Resolución: 1920x804p
  • Formato: MKV
  • Codec: H.264
  • Encoder: Dpelis
  • Mediainfo: Ver Ver
  • The.lost.city.of.z.2016.LATINO.mkv
    Format                      : Matroska
    Format version              : Version 4 / Version 2
    File size                   : 4.18 GiB
    Duration                    : 2 h 21 min
    Overall bit rate            : 4 240 kb/s
    Movie name                  : DPeliculasHDMega.ORG
    Encoded date                : UTC 2017-07-02 00:12:55 / UTC 2017-07-01T13:48:36Z
    Writing application         : mkvmerge v10.0.0 ('To Drown In You') 64bit
    Writing library             : libebml v1.3.4 + libmatroska v1.4.5 / Lavf57.7.2

    Video
    ID                          : 1
    Format                      : AVC
    Format/Info                 : Advanced Video Codec
    Format profile              : [email protected]
    Format settings, CABAC      : Yes
    Format settings, ReFrames   : 4 frames
    Codec ID                    : V_MPEG4/ISO/AVC
    Duration                    : 2 h 21 min
    Bit rate                    : 3 324 kb/s
    Nominal bit rate            : 3 500 kb/s
    Width                       : 1 920 pixels
    Height                      : 804 pixels
    Display aspect ratio        : 2.40:1
    Frame rate mode             : Constant
    Frame rate                  : 23.976 (24000/1001) FPS
    Color space                 : YUV
    Chroma subsampling          : 4:2:0
    Bit depth                   : 8 bits
    Scan type                   : Progressive
    Bits/(Pixel*Frame)          : 0.090
    Stream size                 : 3.28 GiB (78%)
    Writing library             : x264 core 148 r2708 86b7198
    Encoding settings           : cabac=1 / ref=3 / deblock=1:0:0 / analyse=0x3:0x113 / me=hex / subme=7 / psy=1 / psy_rd=1.00:0.00 / mixed_ref=1 / me_range=16 / chroma_me=1 / trellis=1 / 8x8dct=1 / cqm=0 / deadzone=21,11 / fast_pskip=1 / chroma_qp_offset=-2 / threads=9 / lookahead_threads=1 / sliced_threads=0 / nr=0 / decimate=1 / interlaced=0 / bluray_compat=0 / constrained_intra=0 / bframes=3 / b_pyramid=2 / b_adapt=1 / b_bias=0 / direct=1 / weightb=1 / open_gop=0 / weightp=2 / keyint=240 / keyint_min=24 / scenecut=40 / intra_refresh=0 / rc_lookahead=40 / rc=abr / mbtree=1 / bitrate=3500 / ratetol=1.0 / qcomp=0.60 / qpmin=0 / qpmax=69 / qpstep=4 / vbv_maxrate=62500 / vbv_bufsize=78125 / nal_hrd=none / filler=0 / ip_ratio=1.40 / aq=1:1.00
    Default                     : Yes
    Forced                      : No
    Color range                 : Limited
    Color primaries             : BT.709
    Transfer characteristics    : BT.709
    Matrix coefficients         : BT.709
    Statistics Tags Issue       : mkvmerge v10.0.0 ('To Drown In You') 64bit 2017-07-02 00:12:55 / mkvmerge v10.0.0 ('To Drown In You') 64bit 2017-07-02 00:12:55 / UTC 2017-07-01T13:48:36Z
    FromStats_BitRate           : 3405704
    FromStats_Duration          : 02:21:14.466000000
    FromStats_FrameCount        : 203184
    FromStats_StreamSize        : 3607690537

    Audio #1
    ID                          : 2
    Format                      : AC-3
    Format/Info                 : Audio Coding 3
    Format settings, Endianness : Big
    Codec ID                    : A_AC3
    Duration                    : 2 h 21 min
    Bit rate mode               : Constant
    Bit rate                    : 448 kb/s
    Channel(s)                  : 6 channels
    Channel positions           : Front: L C R, Side: L R, LFE
    Sampling rate               : 48.0 kHz
    Frame rate                  : 31.250 FPS (1536 spf)
    Bit depth                   : 16 bits
    Compression mode            : Lossy
    Delay relative to video     : -5 ms
    Stream size                 : 453 MiB (11%)
    Language                    : Spanish
    Service kind                : Complete Main
    Default                     : Yes
    Forced                      : No
    Statistics Tags Issue       : mkvmerge v10.0.0 ('To Drown In You') 64bit 2017-07-02 00:12:55 / mkvmerge v10.0.0 ('To Drown In You') 64bit 2017-07-02 00:12:55 / UTC 2017-07-01T13:48:36Z
    FromStats_BitRate           : 448000
    FromStats_Duration          : 02:21:14.496000000
    FromStats_FrameCount        : 264828
    FromStats_StreamSize        : 474571776

    Audio #2
    ID                          : 3
    Format                      : AC-3
    Format/Info                 : Audio Coding 3
    Format settings, Endianness : Big
    Codec ID                    : A_AC3
    Duration                    : 2 h 21 min
    Bit rate mode               : Constant
    Bit rate                    : 384 kb/s
    Channel(s)                  : 6 channels
    Channel positions           : Front: L C R, Side: L R, LFE
    Sampling rate               : 48.0 kHz
    Frame rate                  : 31.250 FPS (1536 spf)
    Bit depth                   : 16 bits
    Compression mode            : Lossy
    Delay relative to video     : -5 ms
    Stream size                 : 388 MiB (9%)
    Title                       : Surround
    Language                    : English
    Service kind                : Complete Main
    Default                     : No
    Forced                      : No
    Statistics Tags Issue       : mkvmerge v10.0.0 ('To Drown In You') 64bit 2017-07-02 00:12:55 / mkvmerge v10.0.0 ('To Drown In You') 64bit 2017-07-02 00:12:55 / UTC 2017-07-01T13:48:36Z
    FromStats_BitRate           : 384000
    FromStats_Duration          : 02:21:14.464000000
    FromStats_FrameCount        : 264827
    FromStats_StreamSize        : 406774272

    Text #1
    ID                          : 4
    Format                      : UTF-8
    Codec ID                    : S_TEXT/UTF8
    Codec ID/Info               : UTF-8 Plain Text
    Language                    : Spanish
    Default                     : No
    Forced                      : No
    Statistics Tags Issue       : mkvmerge v10.0.0 ('To Drown In You') 64bit 2017-07-02 00:12:55 / mkvmerge v10.0.0 ('To Drown In You') 64bit 2017-07-02 00:12:55 / UTC 2017-07-01T13:48:36Z
    FromStats_BitRate           : 39
    FromStats_Duration          : 02:10:48.316000000
    FromStats_FrameCount        : 1191
    FromStats_StreamSize        : 38594

    Text #2
    ID                          : 5
    Format                      : UTF-8
    Codec ID                    : S_TEXT/UTF8
    Codec ID/Info               : UTF-8 Plain Text
    Language                    : English
    Default                     : No
    Forced                      : No
    Statistics Tags Issue       : mkvmerge v10.0.0 ('To Drown In You') 64bit 2017-07-02 00:12:55 / mkvmerge v10.0.0 ('To Drown In You') 64bit 2017-07-02 00:12:55 / UTC 2017-07-01T13:48:36Z
    FromStats_BitRate           : 63
    FromStats_Duration          : 02:11:49.000000000
    FromStats_FrameCount        : 1568
    FromStats_StreamSize        : 62833

    Menu
    00:00:00.000                : :00:00:00.000
    00:08:21.835                : :00:08:21.751
    00:15:32.932                : :00:15:32.849
    00:21:29.121                : :00:21:29.038
    00:27:10.087                : :00:27:10.045
    00:34:57.721                : :00:34:57.637
    00:44:59.197                : :00:44:59.113
    00:49:36.515                : :00:49:36.432
    00:58:26.003                : :00:58:25.919
    01:04:43.421                : :01:04:43.338
    01:11:10.683                : :01:11:10.600
    01:21:22.378                : :01:21:22.294
    01:27:42.466                : :01:27:42.424
    01:30:42.938                : :01:30:42.854
    01:39:46.314                : :01:39:46.230
    01:44:00.067                : :01:43:59.984
    01:51:40.235                : :01:51:40.193
    01:56:11.089                : :01:56:11.089
    02:01:43.129                : :02:01:43.046
    02:08:34.457                : :02:08:34.373

  • Peso: 4.18 GB

Sinopsis

Año 1925. El explorador británico Percy Fawcett (Charlie Hunman) es enviado a la selva boliviana para que delimite la frontera del país con Brasil y ayude al Gobierno británico a preservar sus intereses en el negocio del caucho. En calidad de cartógrafo, Fawcett emprende un largo y peligroso viaje en el que se adentrará en territorios inexplorados de la selva del Amazonas, acompañado de un grupo de hombres de confianza. Guiado por la obsesiva convicción de que las historias que había oído acerca de una ciudad antigua, conocida como ciudad Z, construida de oro eran ciertas, Fawcett tratará de hacer uno de los descubrimientos más importantes de la historia, esperando tener éxito allí donde tantos otros habían fracasado.

Película basada en el libro de David Grann sobre el personaje real de Percival Fawcett, que dirige James Gray (Two Lovers, La noche es nuestra). El reparto está protagonizado por Charlie Hunnam (La cumbre escarlata, Hijos de la Anarquía), Robert Pattinson (Maps to the Stars, Cosmópolis), Siena Miller (Vivir de noche, High-Rise) y Tom Holland (Spider-Man: Homecoming, En el corazón del mar).

Ficha técnica

Imágenes, Capturas de la película

Video trailer de la película

Enlaces de descarga

Descargar La ciudad perdida Z (2017) 1080p Latino
Descargar

dpeliculas

Aportes de DPeliculasHDmega la pass es:dpeliculashdmega.org Aportes de CinemaniaHD la pass es:cinemaniahdd.com
Guardado en : Acción , Aventura , Drama , Historia

PelícuDelas relacionadas

  • La torre oscura (2017) Full 1080p Latino

    2017
    La torre oscura (2017) Full 1080p Latino

    0.0 1 h 34 min 2017

    Un paisaje del viejo oeste perteneciente a un mundo moribundo, en el cual el tiempo no corre de forma...

    Director: Susan Malerstein

    Género: Acción

    Actores: Zak Rowlands

  • La torre oscura (2017) 1080p Latino

    2017
    La torre oscura (2017) 1080p Latino

    0.0 1 h 34 min 2017

    La historia gira en torno a Roland Deschain, último miembro de una orden de caballería denominada Pistoleros....

    Director: Susan Malerstein

    Género: Acción

    Actores: Zak Rowlands

  • Una historia de venganza (2017) 1080p Latino

    2017
    Una historia de venganza (2017) 1080p Latino

    0.0 1 h 33 min 2017

    Una historia de venganza narra la historia del accidente real de avión que tuvo lugar en Überlingen...

    Director: Sarah Horton

    Género: Drama

    Actores: William Willet

  • Ahora me ves 2 (2016) 2160p 4K UHD HDR Latino-Ingles

    2016
    Ahora me ves 2 (2016) 2160p 4K UHD HDR Latino-Ingles

    0.0 1h 55m 2016

    Descargar gratis Ahora me ves 2 (2016) 2160p 4K UHD HDR Latino-Ingles. Un año dspués de despistar al...

    Director: Jon M. Chu

    Género: Acción

    Actores: Zoey Callandria Jones

Comentarios 4
  • claudia - 02 julio, 2017

    Espero la plateada 🙂

    • dpelis

      Administrador
      - 03 julio, 2017

      unas horas

  • DrakoH - 01 julio, 2017

    Subirán la versión plateada de esta película más adelante?

    • dpelis

      Administrador
      - 01 julio, 2017

      si, manana, ahora el version negra