La casa de la esperanza (2017) Full 1080p Latino

1.172 vistas
1 estrella2 estrellas3 estrellas4 estrellas5 estrellas (1 votos, promedio: 5,00 de 5)
Cargando…

Información de La casa de la esperanza (2017) Full 1080p Latino

Datos de la película

  • Calidad: Full 1080p
  • Audio: Español Latino DTS 5.1 BLURAY - Ingles DTS 5.1 BLURAY
  • Subtitulos: Español Latino PGS - Ingles PGS
  • Resolución: 1920x1080p
  • Formato: MKV
  • Codec: H.264
  • Encoder: Dpelis
  • Mediainfo: Ver Ver
  • The.zookeepers.wife.2017.full.1080p.latino.mkv
    Format                      : Matroska
    Format version              : Version 4 / Version 2
    File size                   : 6.12 GiB
    Duration                    : 2 h 6 min
    Overall bit rate            : 6 931 kb/s
    Movie name                  : DPeliculasHDMega.ORG
    Encoded date                : UTC 2017-06-21 22:21:08 / UTC 2017-06-21T11:55:17Z
    Writing application         : mkvmerge v10.0.0 ('To Drown In You') 64bit
    Writing library             : libebml v1.3.4 + libmatroska v1.4.5 / Lavf57.7.2

    Video
    ID                          : 1
    Format                      : AVC
    Format/Info                 : Advanced Video Codec
    Format profile              : [email protected]
    Format settings, CABAC      : Yes
    Format settings, ReFrames   : 4 frames
    Codec ID                    : V_MPEG4/ISO/AVC
    Duration                    : 2 h 6 min
    Bit rate                    : 4 516 kb/s
    Width                       : 1 920 pixels
    Height                      : 1 080 pixels
    Display aspect ratio        : 16:9
    Frame rate mode             : Constant
    Frame rate                  : 23.976 (24000/1001) FPS
    Color space                 : YUV
    Chroma subsampling          : 4:2:0
    Bit depth                   : 8 bits
    Scan type                   : Progressive
    Bits/(Pixel*Frame)          : 0.091
    Stream size                 : 3.99 GiB (65%)
    Writing library             : x264 core 148 r2708 86b7198
    Encoding settings           : cabac=1 / ref=4 / deblock=1:0:0 / analyse=0x3:0x133 / me=esa / subme=10 / psy=1 / psy_rd=1.00:0.00 / mixed_ref=1 / me_range=24 / chroma_me=1 / trellis=2 / 8x8dct=1 / cqm=0 / deadzone=21,11 / fast_pskip=1 / chroma_qp_offset=-2 / threads=12 / lookahead_threads=2 / sliced_threads=0 / nr=0 / decimate=1 / interlaced=0 / bluray_compat=0 / constrained_intra=0 / bframes=8 / b_pyramid=2 / b_adapt=2 / b_bias=0 / direct=3 / weightb=1 / open_gop=0 / weightp=2 / keyint=240 / keyint_min=24 / scenecut=40 / intra_refresh=0 / rc_lookahead=60 / rc=crf / mbtree=1 / crf=20.0 / qcomp=0.60 / qpmin=0 / qpmax=69 / qpstep=4 / vbv_maxrate=62500 / vbv_bufsize=78125 / crf_max=0.0 / nal_hrd=none / filler=0 / ip_ratio=1.40 / aq=1:1.00
    Default                     : Yes
    Forced                      : No
    Color range                 : Limited
    Color primaries             : BT.709
    Transfer characteristics    : BT.709
    Matrix coefficients         : BT.709
    Statistics Tags Issue       : mkvmerge v10.0.0 ('To Drown In You') 64bit 2017-06-21 22:21:08 / mkvmerge v10.0.0 ('To Drown In You') 64bit 2017-06-21 22:21:08 / UTC 2017-06-21T11:55:17Z
    FromStats_BitRate           : 4637200
    FromStats_Duration          : 02:06:27.580000000
    FromStats_FrameCount        : 181920
    FromStats_StreamSize        : 4398141246

    Audio #1
    ID                          : 2
    Format                      : DTS
    Format/Info                 : Digital Theater Systems
    Mode                        : 16
    Format settings, Endianness : Big
    Codec ID                    : A_DTS
    Duration                    : 2 h 6 min
    Bit rate mode               : Constant
    Bit rate                    : 768 kb/s
    Channel(s)                  : 6 channels
    Channel positions           : Front: L C R, Side: L R, LFE
    Sampling rate               : 48.0 kHz
    Frame rate                  : 93.750 FPS (512 spf)
    Bit depth                   : 24 bits
    Compression mode            : Lossy
    Stream size                 : 695 MiB (11%)
    Title                       : Surround
    Language                    : Spanish
    Default                     : Yes
    Forced                      : No
    Statistics Tags Issue       : mkvmerge v10.0.0 ('To Drown In You') 64bit 2017-06-21 22:21:08 / mkvmerge v10.0.0 ('To Drown In You') 64bit 2017-06-21 22:21:08 / UTC 2017-06-21T11:55:17Z
    FromStats_BitRate           : 767999
    FromStats_Duration          : 02:06:27.574000000
    FromStats_FrameCount        : 711335
    FromStats_StreamSize        : 728407040

    Audio #2
    ID                          : 3
    Format                      : DTS
    Format/Info                 : Digital Theater Systems
    Mode                        : 16
    Format settings, Endianness : Big
    Codec ID                    : A_DTS
    Duration                    : 2 h 6 min
    Bit rate mode               : Constant
    Bit rate                    : 1 509 kb/s
    Channel(s)                  : 6 channels
    Channel positions           : Front: L C R, Side: L R, LFE
    Sampling rate               : 48.0 kHz
    Frame rate                  : 93.750 FPS (512 spf)
    Bit depth                   : 24 bits
    Compression mode            : Lossy
    Stream size                 : 1.33 GiB (22%)
    Title                       : Surround
    Language                    : English
    Default                     : No
    Forced                      : No
    Statistics Tags Issue       : mkvmerge v10.0.0 ('To Drown In You') 64bit 2017-06-21 22:21:08 / mkvmerge v10.0.0 ('To Drown In You') 64bit 2017-06-21 22:21:08 / UTC 2017-06-21T11:55:17Z
    FromStats_BitRate           : 1508999
    FromStats_Duration          : 02:06:27.574000000
    FromStats_FrameCount        : 711335
    FromStats_StreamSize        : 1431206020

    Text #1
    ID                          : 4
    Format                      : PGS
    Muxing mode                 : zlib
    Codec ID                    : S_HDMV/PGS
    Codec ID/Info               : Picture based subtitle format used on BDs/HD-DVDs
    Language                    : Spanish
    Default                     : No
    Forced                      : No
    Statistics Tags Issue       : mkvmerge v10.0.0 ('To Drown In You') 64bit 2017-06-21 22:21:08 / mkvmerge v10.0.0 ('To Drown In You') 64bit 2017-06-21 22:21:08 / UTC 2017-06-21T11:55:17Z
    FromStats_BitRate           : 5828
    FromStats_Duration          : 02:04:39.722000000
    FromStats_FrameCount        : 1805
    FromStats_StreamSize        : 5449175

    Text #2
    ID                          : 5
    Format                      : PGS
    Muxing mode                 : zlib
    Codec ID                    : S_HDMV/PGS
    Codec ID/Info               : Picture based subtitle format used on BDs/HD-DVDs
    Language                    : English
    Default                     : No
    Forced                      : No
    Statistics Tags Issue       : mkvmerge v10.0.0 ('To Drown In You') 64bit 2017-06-21 22:21:08 / mkvmerge v10.0.0 ('To Drown In You') 64bit 2017-06-21 22:21:08 / UTC 2017-06-21T11:55:17Z
    FromStats_BitRate           : 7979
    FromStats_Duration          : 01:58:30.770000000
    FromStats_FrameCount        : 2332
    FromStats_StreamSize        : 7092185

    Menu
    00:00:00.000                : :Chapter 1
    00:04:55.337                : :Chapter 2
    00:14:23.112                : :Chapter 3
    00:21:16.942                : :Chapter 4
    00:29:50.247                : :Chapter 5
    00:35:39.679                : :Chapter 6
    00:40:25.590                : :Chapter 7
    00:49:46.192                : :Chapter 8
    00:54:01.196                : :Chapter 9
    01:00:25.664                : :Chapter 10
    01:06:21.686                : :Chapter 11
    01:11:48.930                : :Chapter 12
    01:19:45.864                : :Chapter 13
    01:25:10.647                : :Chapter 14
    01:30:12.449                : :Chapter 15
    01:36:42.422                : :Chapter 16
    01:39:32.925                : :Chapter 17
    01:46:18.372                : :Chapter 18
    01:55:17.160                : :Chapter 19
    02:01:44.297                : :Chapter 20

  • Peso: 6.12 GB

Sinopsis

Descargar La casa de la esperanza  hd full 1080p latino, Cuando Alemania invadió Polonia, los bombarderos Stuka devastaron Varsovia y también el zoo que había junto a la ciudad. La mayoría de animales murieron y los cuidadores del zoo, Jan y Antonina Zabinski, comenzaron el “contrabando” de judíos con las jaulas de los animales vacías.
Una docena de “invitados” se escondieron en el interior de la villa Zabinskis, donde salían por la noche para cenar e incluso en los raros momentos de calma, improvisaban conciertos de piano. Jan, activo en la resistencia polaca mantuvo municiones enterradas en el recinto de los elefantes y escondió explosivos en el hospital de animales. Mientras tanto, Antonina mantuvo a su inusual familia a flote, cuidando tanto de los humanos como de los animales supervivientes, entre los que se encontraban algunas nutrias, un tejón, linces y cachorros de hiena.

Ficha técnica

Imágenes, Capturas de la película

Video trailer de la película

Enlaces de descarga

Descargar La casa de la esperanza (2017) Full 1080p Latino
Descargar

dpeliculas

Aportes de DPeliculasHDmega la pass es:dpeliculashdmega.org Aportes de CinemaniaHD la pass es:cinemaniahdd.com
Guardado en : Drama , FULL 1080p Pesadas , Historia

PelícuDelas relacionadas

  • Dragon Ball Super (2015) Full 1080p Latino

    2015
    Dragon Ball Super (2015) Full 1080p Latino

    5.0 0h 24m 2015

    Si eres un seguidor de la serie Dragon ball super latino, entonces ahora puedes disfrutar de esta maravillosa...

    Director: Akira Toriyama

    Género: Anime

    Actores: Naoki Tatsuta

  • Juego de Tronos (2016) Temporada 6 Full Latino

    2011/03/17
    Juego de Tronos (2016) Temporada 6 Full Latino

    0.0 60 Min. 2011/03/17

    Descargar gratis Juego de Tronos (2016) Temporada 6 Full Latino Sinopsis capitulo 1: Jon Nieve está...

    Director: David Benioff

    Género: Drama

    Actores: Sophie Turner

  • Juegos de Tronos (2015) Temporada 5 Full Latino

    2011/03/17
    Juegos de Tronos (2015) Temporada 5 Full Latino

    5.0 60 Min. 2011/03/17

    Descargar gratis Juegos de Tronos (2015) Temporada 5 Full Latino  Sinopsis captitulo 1: La reina Cersei...

    Director: David Benioff

    Género: Drama

    Actores: Sophie Turner

  • The Ring 2 (2005) WEB-DL 1080p Latino

    2005
    The Ring 2 (2005) WEB-DL 1080p Latino

    0.0 1h 51m 2005

    Descargar gratis The Ring 2 (2005) WEB-DL 1080p Latino. Para escapar de una vida que era una auténtica...

    Director: Trudy Ramirez

    Género: Drama

    Actores: Sissy Spacek

  • The Grudge 3 (2009) Full Latino

    2009
    The Grudge 3 (2009) Full Latino

    0.0 1h 30m 2009

    Descargar gratis The Grudge 3 (2009) Full Latino. Tercera entrega americana de la saga iniciada por Takashi...

    Director: Toby Wilkins

    Género: FULL 1080p Pesadas

    Actores: Shimba Tsuchiya

Comentarios 4
  • Alexander - 23 Junio, 2017

    Hola, paso para reportar que los acortadores luego de abrir la publicidad, no lleva a los block de enlaces de descarga. Se agradece solucionar problema. De parte de un humilde usuario.

    • dpelis

      Administrador
      - 23 Junio, 2017

      seria tan amable dejarme captura del error.

  • Vino Pangaro - 23 Junio, 2017

    Estimados: temo decirles que el sistema para hacer clic en los anuncios, para despues ver los enlaces esta fallando. Los anuncios no aparecen, por lo cual, no hay posibilidad de hacer clic para pasar a los enlaces. No se que hacer. Si se trata de adblock, en mi caso, esta desactivado.

    • dpelis

      Administrador
      - 23 Junio, 2017

      que navegador, recomiendo chrome. actualizado envieme captura