La bella y la bestia (2017) 1080p Latino

8.054 vistas
1 estrella2 estrellas3 estrellas4 estrellas5 estrellas (5 votos, promedio: 4,00 de 5)
Cargando…

Información de La bella y la bestia (2017) 1080p Latino

Datos de la película

  • Calidad: 1080p
  • Audio: Español Latino AC3 5.1 DVD - Ingles AC3 5.1 BLURAY
  • Subtitulos: Español Latino SRT - Ingles SRT
  • Resolución: 1920x800p
  • Formato: MKV
  • Codec: H.264
  • Encoder: Dpelis
  • Mediainfo: Ver Ver
  • Beauty and the beast (2017) 1080 p Latino-Ingles.mkv
    Format                      : Matroska
    Format version              : Version 4 / Version 2
    File size                   : 3.86 GiB
    Duration                    : 2 h 9 min
    Overall bit rate            : 4 272 kb/s
    Encoded date                : UTC 2017-05-19 20:04:38
    Writing application         : mkvmerge v10.0.0 ('To Drown In You') 64bit
    Writing library             : libebml v1.3.4 + libmatroska v1.4.5

    Video
    ID                          : 1
    Format                      : AVC
    Format/Info                 : Advanced Video Codec
    Format profile              : [email protected]
    Format settings, CABAC      : Yes
    Format settings, ReFrames   : 4 frames
    Codec ID                    : V_MPEG4/ISO/AVC
    Duration                    : 2 h 9 min
    Bit rate                    : 3 500 kb/s
    Width                       : 1 920 pixels
    Height                      : 804 pixels
    Display aspect ratio        : 2.40:1
    Frame rate mode             : Constant
    Frame rate                  : 23.976 (24000/1001) FPS
    Color space                 : YUV
    Chroma subsampling          : 4:2:0
    Bit depth                   : 8 bits
    Scan type                   : Progressive
    Bits/(Pixel*Frame)          : 0.095
    Stream size                 : 3.16 GiB (82%)
    Writing library             : x264 core 148 r2708 86b7198
    Encoding settings           : cabac=1 / ref=3 / deblock=1:0:0 / analyse=0x3:0x113 / me=hex / subme=7 / psy=1 / psy_rd=1.00:0.00 / mixed_ref=1 / me_range=16 / chroma_me=1 / trellis=1 / 8x8dct=1 / cqm=0 / deadzone=21,11 / fast_pskip=1 / chroma_qp_offset=-2 / threads=25 / lookahead_threads=4 / sliced_threads=0 / nr=0 / decimate=1 / interlaced=0 / bluray_compat=0 / constrained_intra=0 / bframes=3 / b_pyramid=2 / b_adapt=1 / b_bias=0 / direct=1 / weightb=1 / open_gop=0 / weightp=2 / keyint=240 / keyint_min=24 / scenecut=40 / intra_refresh=0 / rc_lookahead=40 / rc=abr / mbtree=1 / bitrate=3500 / ratetol=1.0 / qcomp=0.60 / qpmin=0 / qpmax=69 / qpstep=4 / vbv_maxrate=62500 / vbv_bufsize=78125 / nal_hrd=none / filler=0 / ip_ratio=1.40 / aq=1:1.00
    Default                     : Yes
    Forced                      : No
    Color range                 : Limited
    Color primaries             : BT.709
    Transfer characteristics    : BT.709
    Matrix coefficients         : BT.709

    Audio #1
    ID                          : 2
    Format                      : AC-3
    Format/Info                 : Audio Coding 3
    Format settings, Endianness : Big
    Codec ID                    : A_AC3
    Duration                    : 2 h 9 min
    Bit rate mode               : Constant
    Bit rate                    : 384 kb/s
    Channel(s)                  : 6 channels
    Channel positions           : Front: L C R, Side: L R, LFE
    Sampling rate               : 48.0 kHz
    Frame rate                  : 31.250 FPS (1536 spf)
    Bit depth                   : 16 bits
    Compression mode            : Lossy
    Delay relative to video     : 995 ms
    Stream size                 : 355 MiB (9%)
    Language                    : Spanish
    Service kind                : Complete Main
    Default                     : Yes
    Forced                      : No

    Audio #2
    ID                          : 3
    Format                      : AC-3
    Format/Info                 : Audio Coding 3
    Format settings, Endianness : Big
    Codec ID                    : A_AC3
    Duration                    : 2 h 9 min
    Bit rate mode               : Constant
    Bit rate                    : 384 kb/s
    Channel(s)                  : 6 channels
    Channel positions           : Front: L C R, Side: L R, LFE
    Sampling rate               : 48.0 kHz
    Frame rate                  : 31.250 FPS (1536 spf)
    Bit depth                   : 16 bits
    Compression mode            : Lossy
    Delay relative to video     : -5 ms
    Stream size                 : 355 MiB (9%)
    Language                    : English
    Service kind                : Complete Main
    Default                     : No
    Forced                      : No

    Text #1
    ID                          : 4
    Format                      : UTF-8
    Codec ID                    : S_TEXT/UTF8
    Codec ID/Info               : UTF-8 Plain Text
    Duration                    : 10 s 100 ms
    Bit rate                    : 91 b/s
    Count of elements           : 1
    Stream size                 : 115 Bytes (0%)
    Default                     : Yes
    Forced                      : No

    Text #2
    ID                          : 5
    Format                      : UTF-8
    Codec ID                    : S_TEXT/UTF8
    Codec ID/Info               : UTF-8 Plain Text
    Duration                    : 2 h 1 min
    Bit rate                    : 48 b/s
    Count of elements           : 1595
    Stream size                 : 43.7 KiB (0%)
    Language                    : Spanish
    Default                     : No
    Forced                      : No

    Menu
    00:00:00.000                : en:00:00:00.000
    00:04:36.276                : en:00:04:36.276
    00:08:06.528                : en:00:08:06.528
    00:11:18.261                : en:00:11:18.261
    00:15:21.546                : en:00:15:21.546
    00:18:57.386                : en:00:18:57.386
    00:25:05.921                : en:00:25:05.921
    00:31:41.566                : en:00:31:41.566
    00:36:08.708                : en:00:36:08.708
    00:42:32.258                : en:00:42:32.258
    00:47:01.319                : en:00:47:01.318
    00:54:44.990                : en:00:54:44.990
    01:00:43.640                : en:01:00:43.557
    01:07:40.932                : en:01:07:40.932
    01:14:38.224                : en:01:14:38.224
    01:19:43.696                : en:01:19:43.696
    01:22:02.751                : en:01:22:02.751
    01:28:53.370                : en:01:28:53.370
    01:34:01.302                : en:01:34:01.302
    01:38:10.301                : en:01:38:10.176
    01:45:23.692                : en:01:45:23.692
    01:49:13.964                : en:01:49:13.964
    01:55:54.197                : en:01:55:54.197
    01:58:49.497                : en:01:58:49.497

  • Peso: 3.86 GB

Sinopsis

Hermoso, preocupado por su anciano padre, no dudó un momento para ir. Cuando encuentra el castillo, Bella decide hacer un intercambio, y bloqueado a cambio de la libertad de las personas mayores. Durante su estancia, el protagonista se encuentra con una variedad de personajes excéntricos que hacen que usted se sienta más cómodo. Además, poco a poco, usted sabrá la bestia, y darse cuenta de que en el interior hay un gran corazón. Ella se enamora de él, jugar el antiguo encanto de la rosa.

Ficha técnica

Imágenes, Capturas de la película

Video trailer de la película

Enlaces de descarga

Descargar La bella y la bestia (2017) 1080p Latino
Descargar
Descargar La bella y la bestia (2017) 1080p Latino

dpeliculas

Aportes de DPeliculasHDmega la pass es:dpeliculashdmega.org Aportes de CinemaniaHD la pass es:cinemaniahdd.com
Guardado en : Fantasía , Romance

PelícuDelas relacionadas

  • La torre oscura (2017) Full 1080p Latino

    2017
    La torre oscura (2017) Full 1080p Latino

    0.0 1 h 34 min 2017

    Un paisaje del viejo oeste perteneciente a un mundo moribundo, en el cual el tiempo no corre de forma...

    Director: Susan Malerstein

    Género: Acción

    Actores: Zak Rowlands

  • La torre oscura (2017) 1080p Latino

    2017
    La torre oscura (2017) 1080p Latino

    0.0 1 h 34 min 2017

    La historia gira en torno a Roland Deschain, último miembro de una orden de caballería denominada Pistoleros....

    Director: Susan Malerstein

    Género: Acción

    Actores: Zak Rowlands

  • Dirty Dancing (2017) 1080p Latino

    2017
    Dirty Dancing (2017) 1080p Latino

    0.0 2 h 10 min 2017

    Remake televisivo del exitoso film romántico de 1987 protagonizado por Patrick Swayze y Jennifer Grey.

    Director: Wayne Blair

    Género: Drama

    Actores: Trevor Einhorn

  • Su mejor historia (2017) 1080p Latino

    2017
    Su mejor historia (2017) 1080p Latino

    0.0 1h 57m 2017

    Un equipo cinematográfico británico recibe el encargo de hacer una película patriótica para levantar...

    Director: Lone Scherfig

    Género: Comedia

    Actores: Steve Carroll

Comentarios 12
  • Daniel Lopez - 20 mayo, 2017

    UNA PREGUNTA PORQUE EL MEGADOWLOADER DA ERROR EN LOS LINKS. SERA QUE HAY OTRA VERSION O YA NO ES VALIDA ESTA APLICACION TENGO LA 1.7. SI DEJAN UN LINK PARA ACTUALIZARLO POR FAVOR. LO DEL # ESO NO ES EL PROBLEMA SOLO QUE QUE AGREGA PERO AL VERIFICAR DA ERROR YA INTENTE CON VARIAS PELICULAS Y NO NINGUNO POR ESO NO CREO Q LOS LINKS ESTEN DAÑADOS.

    • dpelis

      Administrador
      - 20 mayo, 2017

      muy raro. use mipony es igual bueno estimado

  • David - 20 mayo, 2017

    Aportazo, de verdad se aprecia muchisimo su esfuerzo chicos, siempre apoyandolos y nada mas que recomendandolos a todos ;D

  • carlos - 17 mayo, 2017

    dice quees web dl- mas sin embargo al descrgar es HD-rip no es lo mismo pongan bien la info ha decaido muchisima esta pagina

    • dpelis

      Administrador
      - 17 mayo, 2017

      hdrip para mi es una version que se le hecho cropp o con subtitulos Koreanos,en esta version la ve? yo veo una version limpia . Aca le dejo la fuente. Beauty.And.The.Beast.2017.1080P.WEB-DL.H264.AAC-JBY

  • hernesto - 17 mayo, 2017

    los enlaces de mega no funcionan, me sale la el boton de para descargar en mega, solo el logo. y cuando uso gestores me salen que no encuentran archivo.