Kung Fu Yoga (2017) Full 1080p Castellano

1.640 vistas
1 estrella2 estrellas3 estrellas4 estrellas5 estrellas (Ninguna valoración todavía)
Cargando…

Información de Kung Fu Yoga (2017) Full 1080p Castellano

Datos de la película

  • Calidad: Full 1080p
  • Audio: Español Castellano DTS 5.1 BLURAY - Chino DTS 5.1 BLURAY
  • Subtitulos: Español PGS - Ingles PGS
  • Resolución: 1920x1080p
  • Formato: MKV
  • Codec: H.264
  • Encoder: Dpelis
  • Mediainfo: Ver Ver
  • Kung.fu.yoga.2017.Full.Castellano.mkv
    Format                      : Matroska
    Format version              : Version 4 / Version 2
    File size                   : 8.00 GiB
    Duration                    : 1 h 47 min
    Overall bit rate            : 10.7 Mb/s
    Movie name                  : DPeliculasHDMega.ORG
    Encoded date                : UTC 2017-08-09 21:23:36 / UTC 2017-08-09T05:15:49Z
    Writing application         : mkvmerge v10.0.0 ('To Drown In You') 64bit
    Writing library             : libebml v1.3.4 + libmatroska v1.4.5 / Lavf57.7.2

    Video
    ID                          : 1
    Format                      : AVC
    Format/Info                 : Advanced Video Codec
    Format profile              : [email protected]
    Format settings, CABAC      : Yes
    Format settings, ReFrames   : 4 frames
    Codec ID                    : V_MPEG4/ISO/AVC
    Duration                    : 1 h 47 min
    Bit rate                    : 7 469 kb/s
    Width                       : 1 920 pixels
    Height                      : 1 080 pixels
    Display aspect ratio        : 16:9
    Frame rate mode             : Constant
    Frame rate                  : 24.000 FPS
    Color space                 : YUV
    Chroma subsampling          : 4:2:0
    Bit depth                   : 8 bits
    Scan type                   : Progressive
    Bits/(Pixel*Frame)          : 0.150
    Stream size                 : 5.58 GiB (70%)
    Writing library             : x264 core 148 r2708 86b7198
    Encoding settings           : cabac=1 / ref=4 / deblock=1:0:0 / analyse=0x3:0x133 / me=esa / subme=10 / psy=1 / psy_rd=1.00:0.00 / mixed_ref=1 / me_range=24 / chroma_me=1 / trellis=2 / 8x8dct=1 / cqm=0 / deadzone=21,11 / fast_pskip=1 / chroma_qp_offset=-2 / threads=12 / lookahead_threads=2 / sliced_threads=0 / nr=0 / decimate=1 / interlaced=0 / bluray_compat=0 / constrained_intra=0 / bframes=8 / b_pyramid=2 / b_adapt=2 / b_bias=0 / direct=3 / weightb=1 / open_gop=0 / weightp=2 / keyint=240 / keyint_min=24 / scenecut=40 / intra_refresh=0 / rc_lookahead=60 / rc=crf / mbtree=1 / crf=20.0 / qcomp=0.60 / qpmin=0 / qpmax=69 / qpstep=4 / vbv_maxrate=62500 / vbv_bufsize=78125 / crf_max=0.0 / nal_hrd=none / filler=0 / ip_ratio=1.40 / aq=1:1.00
    Default                     : Yes
    Forced                      : No
    Color range                 : Limited
    Color primaries             : BT.709
    Transfer characteristics    : BT.709
    Matrix coefficients         : BT.709
    Statistics Tags Issue       : mkvmerge v10.0.0 ('To Drown In You') 64bit 2017-08-09 21:23:36 / mkvmerge v10.0.0 ('To Drown In You') 64bit 2017-08-09 21:23:36 / UTC 2017-08-09T05:15:49Z
    FromStats_BitRate           : 7661972
    FromStats_Duration          : 01:47:00.917000000
    FromStats_FrameCount        : 154102
    FromStats_StreamSize        : 6149611381

    Audio #1
    ID                          : 2
    Format                      : DTS
    Format/Info                 : Digital Theater Systems
    Mode                        : 16
    Format settings, Endianness : Big
    Codec ID                    : A_DTS
    Duration                    : 1 h 47 min
    Bit rate mode               : Constant
    Bit rate                    : 1 509 kb/s
    Channel(s)                  : 6 channels
    Channel positions           : Front: L C R, Side: L R, LFE
    Sampling rate               : 48.0 kHz
    Frame rate                  : 93.750 FPS (512 spf)
    Bit depth                   : 24 bits
    Compression mode            : Lossy
    Stream size                 : 1.13 GiB (14%)
    Title                       : Surround
    Language                    : Spanish
    Default                     : Yes
    Forced                      : No
    Statistics Tags Issue       : mkvmerge v10.0.0 ('To Drown In You') 64bit 2017-08-09 21:23:36 / mkvmerge v10.0.0 ('To Drown In You') 64bit 2017-08-09 21:23:36 / UTC 2017-08-09T05:15:49Z
    FromStats_BitRate           : 1508999
    FromStats_Duration          : 01:47:00.907000000
    FromStats_FrameCount        : 601960
    FromStats_StreamSize        : 1211143520

    Audio #2
    ID                          : 3
    Format                      : DTS
    Format/Info                 : Digital Theater Systems
    Mode                        : 16
    Format settings, Endianness : Big
    Codec ID                    : A_DTS
    Duration                    : 1 h 47 min
    Bit rate mode               : Constant
    Bit rate                    : 1 509 kb/s
    Channel(s)                  : 6 channels
    Channel positions           : Front: L C R, Side: L R, LFE
    Sampling rate               : 48.0 kHz
    Frame rate                  : 93.750 FPS (512 spf)
    Bit depth                   : 24 bits
    Compression mode            : Lossy
    Stream size                 : 1.13 GiB (14%)
    Title                       : Surround
    Language                    : Chinese
    Default                     : No
    Forced                      : No
    Statistics Tags Issue       : mkvmerge v10.0.0 ('To Drown In You') 64bit 2017-08-09 21:23:36 / mkvmerge v10.0.0 ('To Drown In You') 64bit 2017-08-09 21:23:36 / UTC 2017-08-09T05:15:49Z
    FromStats_BitRate           : 1508999
    FromStats_Duration          : 01:47:00.907000000
    FromStats_FrameCount        : 601960
    FromStats_StreamSize        : 1211143520

    Text #1
    ID                          : 4
    Format                      : PGS
    Muxing mode                 : zlib
    Codec ID                    : S_HDMV/PGS
    Codec ID/Info               : Picture based subtitle format used on BDs/HD-DVDs
    Language                    : Spanish
    Default                     : No
    Forced                      : No
    Statistics Tags Issue       : mkvmerge v10.0.0 ('To Drown In You') 64bit 2017-08-09 21:23:36 / mkvmerge v10.0.0 ('To Drown In You') 64bit 2017-08-09 21:23:36 / UTC 2017-08-09T05:15:49Z
    FromStats_BitRate           : 9430
    FromStats_Duration          : 01:33:28.000000000
    FromStats_FrameCount        : 2013
    FromStats_StreamSize        : 6610565

    Text #2
    ID                          : 5
    Format                      : PGS
    Muxing mode                 : zlib
    Codec ID                    : S_HDMV/PGS
    Codec ID/Info               : Picture based subtitle format used on BDs/HD-DVDs
    Language                    : English
    Default                     : No
    Forced                      : No
    Statistics Tags Issue       : mkvmerge v10.0.0 ('To Drown In You') 64bit 2017-08-09 21:23:36 / mkvmerge v10.0.0 ('To Drown In You') 64bit 2017-08-09 21:23:36 / UTC 2017-08-09T05:15:49Z
    FromStats_BitRate           : 9176
    FromStats_Duration          : 01:33:28.000000000
    FromStats_FrameCount        : 2016
    FromStats_StreamSize        : 6432463

    Menu
    00:00:00.000                : :Chapter 1
    00:07:30.375                : :Chapter 2
    00:13:30.167                : :Chapter 3
    00:19:07.208                : :Chapter 4
    00:26:22.208                : :Chapter 5
    00:32:20.417                : :Chapter 6
    00:38:53.708                : :Chapter 7
    00:44:52.208                : :Chapter 8
    00:50:39.750                : :Chapter 9
    00:57:58.875                : :Chapter 10
    01:04:38.458                : :Chapter 11
    01:12:43.833                : :Chapter 12
    01:18:05.583                : :Chapter 13
    01:24:19.167                : :Chapter 14
    01:30:57.292                : :Chapter 15
    01:35:21.083                : :Chapter 16

  • Peso: 8 GB

Sinopsis

Descargar Kung Fu Yoga HD una película China pero con doblaje Castellano, no sabemos si habra latino El profesor de arqueología Jack (Jackie Chan), se asocia a la bella profesora india Ashmita y su asistente Kyra para localizar el tesoro de Magadha. En una cueva en el Tíbet, encuentran los restos de un ejército de la realeza, que desapareció junto al tesoro. Ahora un descendiente de un líder rebelde también buscará el tesoro y se convertirá en el enemigo de los protagonistas, así comienza la aventura que recorre paisajes en el Tíbet, India, China, etc.

Ficha técnica

Imágenes, Capturas de la película

Video trailer de la película

Enlaces de descarga

Descargar Kung Fu Yoga (2017) Full 1080p Castellano
Descargar

dpeliculas

Aportes de DPeliculasHDmega la pass es:dpeliculashdmega.org Aportes de CinemaniaHD la pass es:cinemaniahdd.com

PelícuDelas relacionadas

  • Equipo paranormal (2013) 1080p Latino

    2013
    Equipo paranormal (2013) 1080p Latino

    0.0 1h 47m 2013

    Descargar gratis Equipo paranormal (2013) 1080p Latino. En est pelicula de comedia de terror, cuando...

    Director: Scott Rutherford

    Género: Comedia

    Actores: Tony Cavalero

  • Dragon Ball Super (2015) Full 1080p Latino

    2015
    Dragon Ball Super (2015) Full 1080p Latino

    5.0 0h 24m 2015

    Si eres un seguidor de la serie Dragon ball super latino, entonces ahora puedes disfrutar de esta maravillosa...

    Director: Akira Toriyama

    Género: Anime

    Actores: Naoki Tatsuta

  • Operation Mekong (2016) 1080p Latino

    2016
    Operation Mekong (2016) 1080p Latino

    5.0 2h 4m 2016

    A lo largo del río Mekong se encuentra el llamado triángulo dorado, uno de los mayores proveedores...

    Director: Dante Lam

    Género: Acción

    Actores: Zhao Jian

Comentarios 2
  • Miguel Angel - 10 Agosto, 2017

    La publicaran en latino Full?

    • dpelis

      Administrador
      - 10 Agosto, 2017

      si algun dia sale, se publica, pero las peliculas de este autor las doblaje demoran