Kong La isla Calavera (2017) WEBDL 1080p Latino

3.267 vistas
1 estrella2 estrellas3 estrellas4 estrellas5 estrellas (Ninguna valoración todavía)
Cargando…

Información de Kong La isla Calavera (2017) WEBDL 1080p Latino

Datos de la película

  • Calidad: WEBDL
  • Audio: Español Latino AC3 5.1 iTunes - Ingles AC3 5.1 iTunes
  • Subtitulos: Español Latino SRT
  • Resolución: 1912x792p
  • Formato: MKV
  • Codec: H.264
  • Encoder: Dpelis
  • Mediainfo: Ver Ver
  • Kong_ Skull Island  (1080p HD)\Kong_ Skull Island  2017 WEBDL latino.mkv
    Format                      : Matroska
    Format version              : Version 4 / Version 2
    File size                   : 4.39 GiB
    Duration                    : 1 h 58 min
    Overall bit rate            : 5 308 kb/s
    Movie name                  : DPeliculasHDMega.ORG
    Encoded date                : UTC 2017-06-20 01:27:31
    Writing application         : mkvmerge v10.0.0 ('To Drown In You') 64bit
    Writing library             : libebml v1.3.4 + libmatroska v1.4.5

    Video
    ID                          : 1
    Format                      : AVC
    Format/Info                 : Advanced Video Codec
    Format profile              : [email protected]
    Format settings, CABAC      : Yes
    Format settings, ReFrames   : 5 frames
    Codec ID                    : V_MPEG4/ISO/AVC
    Duration                    : 1 h 58 min
    Bit rate                    : 4 537 kb/s
    Width                       : 1 912 pixels
    Height                      : 792 pixels
    Display aspect ratio        : 2.40:1
    Frame rate mode             : Constant
    Frame rate                  : 23.976 (23976/1000) FPS
    Color space                 : YUV
    Chroma subsampling          : 4:2:0
    Bit depth                   : 8 bits
    Scan type                   : Progressive
    Bits/(Pixel*Frame)          : 0.125
    Stream size                 : 3.75 GiB (85%)
    Language                    : English
    Default                     : Yes
    Forced                      : No
    Color range                 : Limited
    Color primaries             : BT.709
    Transfer characteristics    : BT.709
    Matrix coefficients         : BT.709

    Audio #1
    ID                          : 2
    Format                      : AC-3
    Format/Info                 : Audio Coding 3
    Format settings, Endianness : Big
    Codec ID                    : A_AC3
    Duration                    : 1 h 58 min
    Bit rate mode               : Constant
    Bit rate                    : 384 kb/s
    Channel(s)                  : 6 channels
    Channel positions           : Front: L C R, Side: L R, LFE
    Sampling rate               : 48.0 kHz
    Frame rate                  : 31.250 FPS (1536 spf)
    Bit depth                   : 16 bits
    Compression mode            : Lossy
    Stream size                 : 325 MiB (7%)
    Language                    : Spanish
    Service kind                : Complete Main
    Default                     : Yes
    Forced                      : No

    Audio #2
    ID                          : 3
    Format                      : AC-3
    Format/Info                 : Audio Coding 3
    Format settings, Endianness : Big
    Codec ID                    : A_AC3
    Duration                    : 1 h 58 min
    Bit rate mode               : Constant
    Bit rate                    : 384 kb/s
    Channel(s)                  : 6 channels
    Channel positions           : Front: L C R, Side: L R, LFE
    Sampling rate               : 48.0 kHz
    Frame rate                  : 31.250 FPS (1536 spf)
    Bit depth                   : 16 bits
    Compression mode            : Lossy
    Stream size                 : 325 MiB (7%)
    Language                    : English
    Service kind                : Complete Main
    Default                     : No
    Forced                      : No

    Text #1
    ID                          : 4
    Format                      : UTF-8
    Codec ID                    : S_TEXT/UTF8
    Codec ID/Info               : UTF-8 Plain Text
    Duration                    : 1 h 57 min
    Bit rate                    : 51 b/s
    Count of elements           : 1280
    Stream size                 : 43.8 KiB (0%)
    Language                    : Spanish
    Default                     : Yes
    Forced                      : No

    Text #2
    ID                          : 5
    Format                      : UTF-8
    Codec ID                    : S_TEXT/UTF8
    Codec ID/Info               : UTF-8 Plain Text
    Duration                    : 1 h 57 min
    Bit rate                    : 1 b/s
    Count of elements           : 36
    Stream size                 : 912 Bytes (0%)
    Title                       : FORZADOS
    Language                    : Spanish
    Default                     : No
    Forced                      : No

    Menu
    00:00:00.000                : en:1
    00:08:54.000                : en:2
    00:19:51.000                : en:3
    00:30:00.000                : en:4
    00:40:00.000                : en:5
    00:50:12.000                : en:6
    01:00:49.000                : en:7
    01:10:29.000                : en:8
    01:18:05.000                : en:9
    01:30:12.000                : en:10
    01:39:09.000                : en:11
    01:47:05.000                : en:12

  • Peso: 4.39 GB

Sinopsis

Descargar Gratis Pelicula de Kong La isla Calavera hd Latino, Un grupo de viajeros, exploradores y soldados de lo más dispar se reúne para viajar a una misteriosa isla del Pacífico que no aparece en los mapas. Entre ellos están el Capitán James Conrad (Tom Hiddleston), el Teniente Coronel Packard (Samuel L. Jackson) y una fotoperiodista (Brie Larson) amante de la naturaleza. Pero al adentrarse en esta bella y también traicionera isla, los exploradores encontrarán algo absolutamente sorprendente. Sin saberlo, estarán invadiendo los dominios del mítico Kong, el gigante gorila rey de esta isla. Será Marlow (John C. Reilly), un peculiar habitante del lugar, quien les enseñe los secretos de Isla Calavera, además del resto de seres monstruosos que la habitan…

Esta película de acción y aventura sobre los orígenes del gigantesco y mítico gorila King Kong está dirigida por Jordan Vogt-Roberts (The Kings of Summer, Mash Up). Los actores protagonistas son Tom Hiddleston (La cumbre escarlata, High-Rise), Brie Larson (La habitación, Y de repente tú), Samuel L. Jackson (El hogar de Miss Peregrine para niños peculiares, Los odiosos ocho), John Goodman (Calle Cloverfield 10, Trumbo: la lista negra de Hollywood), Toby Kebbell (Un monstruo viene a verme, Warcraft. El origen) y John C. Reilly (Langosta, Guardianes de la galaxia).

Ficha técnica

Imágenes, Capturas de la película

Video trailer de la película

Enlaces de descarga

Descargar
Descargar Kong La isla Calavera (2017) WEBDL 1080p Latino
Descargar

dpeliculas

Aportes de DPeliculasHDmega la pass es:dpeliculashdmega.org Aportes de CinemaniaHD la pass es:cinemaniahdd.com
Guardado en : Acción , Aventura , Fantasía

PelícuDelas relacionadas

  • Nightmare on Elm street 7 (1994) Full Latino

    1994
    Nightmare on Elm street 7 (1994) Full Latino

    0.0 0h 0m 1994

    Descargar gratis Nightmare on Elm street 7 (1994) Full Latino Mega. La actriz que protagonizó la primera...

    Director: Wes Craven

    Género: Fantasía

    Actores: Yonda Davis

  • Sahara (2017) Full Latino

    2017
    Sahara (2017) Full Latino

    0.0 0h 0m 2017

    Descargar gratis Sahara (2017) Full Latino Mega. Cansados de ser el chivo expiatorio de su comunidad,...

    Director: Pierre Coré

    Género: Animación

    Actores: Vincent Lacoste

  • Sahara (2017) 1080p Latino

    2017
    Sahara (2017) 1080p Latino

    1.0 1h 19m 2017

    Cansado de ser el chivo expiatorio de su comunidad, entreabierta una serpiente y su amigo Pitt, escorpión,...

    Director: Pierre Coré

    Género: Animación

    Actores: Vincent Lacoste

  • Sahara (2017) 720p Latino

    2017
    Sahara (2017) 720p Latino

    0.0 1h 24m 2017

    Descargar Pelicula Sahara 2017 hd 720p latino,Cansados de ser el chivo expiatorio de su comunidad, Ajar...

    Director: Pierre Coré

    Género: Animación

    Actores: Vincent Lacoste

Comentarios 1
  • Aaron Soria - 20 Junio, 2017

    Siiiii al fin gracias por subirla, la descargare, a vere y esperare la gris.