Kong: La isla Calavera (2017) 3D OU Full Latino

1.784 vistas
1 estrella2 estrellas3 estrellas4 estrellas5 estrellas (Ninguna valoración todavía)
Cargando…

Información de Kong: La isla Calavera (2017) 3D OU Full Latino

Datos de la película

  • Calidad: Full 1080p
  • Audio: Español Latino AC3 5.1 iTUNES - Ingles DTS 5.1 BLURAY
  • Subtitulos: Español Latino PGS - Ingles PGS
  • Resolución: 1920x1080p
  • Formato: MKV
  • Codec: H.264
  • Encoder: Dpelis
  • Mediainfo: Ver Ver
  • Kong La isla de la calavera 3DOU Full 1080p Latino.mkv
    Format                      : Matroska
    Format version              : Version 4 / Version 2
    File size                   : 9.04 GiB
    Duration                    : 1 h 58 min
    Overall bit rate            : 10.9 Mb/s
    Movie name                  : DPeliculasHDMega.ORG
    Encoded date                : UTC 2017-06-28 18:00:55
    Writing application         : mkvmerge v10.0.0 ('To Drown In You') 64bit
    Writing library             : libebml v1.3.4 + libmatroska v1.4.5

    Video
    ID                          : 1
    Format                      : AVC
    Format/Info                 : Advanced Video Codec
    Format profile              : [email protected]
    Format settings, CABAC      : Yes
    Format settings, ReFrames   : 2 frames
    Codec ID                    : V_MPEG4/ISO/AVC
    Duration                    : 1 h 58 min
    Bit rate                    : 9 028 kb/s
    Width                       : 1 920 pixels
    Height                      : 1 080 pixels
    Display aspect ratio        : 16:9
    Frame rate mode             : Constant
    Frame rate                  : 23.976 (24000/1001) FPS
    Color space                 : YUV
    Chroma subsampling          : 4:2:0
    Bit depth                   : 8 bits
    Scan type                   : Progressive
    Bits/(Pixel*Frame)          : 0.182
    Stream size                 : 7.46 GiB (83%)
    Writing library             : x264 core 142
    Encoding settings           : cabac=1 / ref=1 / deblock=1:-1:-1 / analyse=0x3:0 / me=hex / subme=5 / psy=0 / mixed_ref=0 / me_range=16 / chroma_me=1 / trellis=0 / 8x8dct=1 / cqm=0 / deadzone=21,11 / fast_pskip=0 / chroma_qp_offset=0 / threads=8 / lookahead_threads=2 / sliced_threads=0 / nr=0 / decimate=1 / interlaced=0 / bluray_compat=0 / constrained_intra=0 / bframes=2 / b_pyramid=0 / b_adapt=1 / b_bias=0 / direct=1 / weightb=0 / open_gop=0 / weightp=0 / keyint=24 / keyint_min=13 / scenecut=40 / intra_refresh=0 / rc=crf / mbtree=0 / crf=20.0 / qcomp=0.60 / qpmin=0 / qpmax=69 / qpstep=4 / ip_ratio=1.40 / pb_ratio=1.30 / aq=1:1.00
    Default                     : Yes
    Forced                      : No
    Color range                 : Limited
    Color primaries             : BT.709
    Transfer characteristics    : BT.709
    Matrix coefficients         : BT.709

    Audio #1
    ID                          : 2
    Format                      : AC-3
    Format/Info                 : Audio Coding 3
    Format settings, Endianness : Big
    Codec ID                    : A_AC3
    Duration                    : 1 h 58 min
    Bit rate mode               : Constant
    Bit rate                    : 384 kb/s
    Channel(s)                  : 6 channels
    Channel positions           : Front: L C R, Side: L R, LFE
    Sampling rate               : 48.0 kHz
    Frame rate                  : 31.250 FPS (1536 spf)
    Bit depth                   : 16 bits
    Compression mode            : Lossy
    Delay relative to video     : 1 s 100 ms
    Stream size                 : 325 MiB (4%)
    Language                    : Spanish
    Service kind                : Complete Main
    Default                     : Yes
    Forced                      : No

    Audio #2
    ID                          : 3
    Format                      : DTS
    Format/Info                 : Digital Theater Systems
    Mode                        : 16
    Format settings, Endianness : Big
    Codec ID                    : A_DTS
    Duration                    : 1 h 58 min
    Bit rate mode               : Constant
    Bit rate                    : 1 509 kb/s
    Channel(s)                  : 6 channels
    Channel positions           : Front: L C R, Side: L R, LFE
    Sampling rate               : 48.0 kHz
    Frame rate                  : 93.750 FPS (512 spf)
    Bit depth                   : 16 bits
    Compression mode            : Lossy
    Stream size                 : 1.25 GiB (14%)
    Language                    : English
    Default                     : No
    Forced                      : No

    Text #1
    ID                          : 4
    Format                      : PGS
    Muxing mode                 : zlib
    Codec ID                    : S_HDMV/PGS
    Codec ID/Info               : Picture based subtitle format used on BDs/HD-DVDs
    Duration                    : 1 h 58 min
    Bit rate                    : 8 571 b/s
    Count of elements           : 3060
    Stream size                 : 7.25 MiB (0%)
    Language                    : English
    Default                     : No
    Forced                      : No

    Text #2
    ID                          : 5
    Format                      : PGS
    Muxing mode                 : zlib
    Codec ID                    : S_HDMV/PGS
    Codec ID/Info               : Picture based subtitle format used on BDs/HD-DVDs
    Duration                    : 1 h 57 min
    Bit rate                    : 268 b/s
    Count of elements           : 70
    Stream size                 : 232 KiB (0%)
    Language                    : Spanish
    Default                     : No
    Forced                      : No

    Menu
    00:00:00.000                : en:(01)00:00:00:000
    00:08:54.742                : en:(02)00:08:54:742
    00:19:51.773                : en:(03)00:19:51:773
    00:30:01.132                : en:(04)00:30:01:132
    00:40:00.106                : en:(05)00:40:00:106
    00:50:13.260                : en:(06)00:50:13:260
    01:00:49.729                : en:(07)01:00:49:729
    01:10:29.600                : en:(08)01:10:29:600
    01:18:05.889                : en:(09)01:18:05:889
    01:30:12.657                : en:(10)01:30:12:657
    01:39:09.026                : en:(11)01:39:09:026
    01:47:05.836                : en:(12)01:47:05:836

  • Peso: 9.04 GB

Sinopsis

El capitán James Conrad lidera una expedición formada por científicos, soldados y aventureros que viajan hasta una recóndita isla del Pacífico rodeada de leyendas y supersticiones. Allí descubrirán que los mitos son ciertos, y que acaban de adentrarse en un mundo primigenio en el que están aislados de todo lo que conocen, un lugar en el que Kong es el rey y en el que se libra una batalla entre el hombre y la naturaleza que transformará su misión de descubrimiento en una lucha por sobrevivir.

 

Jordan Vogt-Roberts (The Kings of Summer) se pone a los mandos de su primer blockbuster, nada más y nada menos que una aventura en la isla natal del mítico King Kong. Desde ese insólito lugar, Kong: La Isla Calavera reimagina los orígenes del gorila gigante a través de una película llena de aventuras (y en algunos pasajes, incluso terror) en la que una misión capitaneada por Tom Hiddleston (La cumbre escarlata), la oscarizada Brie Larson (La habitación), el nominado a un premio de la Academia Samuel L. Jackson (Los odiosos ocho) y John Goodman (Calle Cloverfield 10), entre otros, se verá atrapada en una isla en la que Kong no es el único, ni el más mortífero, de los monstruos. Por su parte, el nominado al Oscar John C. Reilly (Langosta) aporta los toques de humor a esta cinta que, rodada en tres continentes, no sólo se inspira en el clásico de 1933, sino también en filmes como Apocalypse Now o Depredador.

Ficha técnica

Imágenes, Capturas de la película

Video trailer de la película

Enlaces de descarga

Descargar Kong: La isla Calavera (2017) 3D OU Full Latino
Descargar

dpeliculas

Aportes de DPeliculasHDmega la pass es:dpeliculashdmega.org Aportes de CinemaniaHD la pass es:cinemaniahdd.com
Guardado en : 3D Half OU , Acción , Aventura , Fantasía

PelícuDelas relacionadas

Comentarios 5
  • Luis M Valencia - 29 junio, 2017

    Esta version de pelicula se puede ver en una tele que solo tenga side by side 3D? si no se puede ver existe alguna manera de convertirla para side by side? por que eligieron subir este formato y no el side by side? Solo tengo curiosidad por favor no vayan a creeer que estoy quejandome.

    Muchas gracias por los aportes son los mejores.

    • dpelis

      Administrador
      - 29 junio, 2017

      supongo que es lo mismo debe probar, no veo 3d. saludos

  • Claudia - 29 junio, 2017

    Esperando la plateada 😉

  • martin omar - 28 junio, 2017

    estará disponible la versión Plateada* ? :/

    • dpelis

      Administrador
      - 28 junio, 2017

      en 8 horas