Kong La isla Calavera (2017) 1080p Latino

7.704 vistas
1 estrella2 estrellas3 estrellas4 estrellas5 estrellas (2 votos, promedio: 4,50 de 5)
Cargando…

Información de Kong La isla Calavera (2017) 1080p Latino

Datos de la película

  • Calidad: 1080p
  • Audio: Español Latino AC3 5.1 iTUNES - Ingles AC3 5.1 BLURAY
  • Subtitulos: Español Latino SRT - Ingles SRT
  • Resolución: 1920X800p
  • Formato: MKV
  • Codec: H.264
  • Encoder: Dpelis
  • Mediainfo: Ver Ver
  • Kong La Isla de la calavera 2017 1080p Latino.mkv
    Format                      : Matroska
    Format version              : Version 4 / Version 2
    File size                   : 3.52 GiB
    Duration                    : 1 h 58 min
    Overall bit rate            : 4 260 kb/s
    Movie name                  : DPeliculasHDMega.ORG
    Encoded date                : UTC 2017-06-25 17:27:45
    Writing application         : mkvmerge v10.0.0 ('To Drown In You') 64bit
    Writing library             : libebml v1.3.4 + libmatroska v1.4.5

    Video
    ID                          : 1
    Format                      : AVC
    Format/Info                 : Advanced Video Codec
    Format profile              : [email protected]
    Format settings, CABAC      : Yes
    Format settings, ReFrames   : 4 frames
    Codec ID                    : V_MPEG4/ISO/AVC
    Duration                    : 1 h 58 min
    Bit rate                    : 3 500 kb/s
    Width                       : 1 920 pixels
    Height                      : 800 pixels
    Display aspect ratio        : 2.40:1
    Frame rate mode             : Constant
    Frame rate                  : 23.976 (24000/1001) FPS
    Color space                 : YUV
    Chroma subsampling          : 4:2:0
    Bit depth                   : 8 bits
    Scan type                   : Progressive
    Bits/(Pixel*Frame)          : 0.095
    Stream size                 : 2.89 GiB (82%)
    Writing library             : x264 core 148 r2708 86b7198
    Encoding settings           : cabac=1 / ref=3 / deblock=1:0:0 / analyse=0x3:0x113 / me=hex / subme=7 / psy=1 / psy_rd=1.00:0.00 / mixed_ref=1 / me_range=16 / chroma_me=1 / trellis=1 / 8x8dct=1 / cqm=0 / deadzone=21,11 / fast_pskip=1 / chroma_qp_offset=-2 / threads=12 / lookahead_threads=2 / sliced_threads=0 / nr=0 / decimate=1 / interlaced=0 / bluray_compat=0 / constrained_intra=0 / bframes=3 / b_pyramid=2 / b_adapt=1 / b_bias=0 / direct=1 / weightb=1 / open_gop=0 / weightp=2 / keyint=240 / keyint_min=24 / scenecut=40 / intra_refresh=0 / rc_lookahead=40 / rc=abr / mbtree=1 / bitrate=3500 / ratetol=1.0 / qcomp=0.60 / qpmin=0 / qpmax=69 / qpstep=4 / vbv_maxrate=62500 / vbv_bufsize=78125 / nal_hrd=none / filler=0 / ip_ratio=1.40 / aq=1:1.00
    Default                     : Yes
    Forced                      : No
    Color range                 : Limited
    Color primaries             : BT.709
    Transfer characteristics    : BT.709
    Matrix coefficients         : BT.709

    Audio #1
    ID                          : 2
    Format                      : AC-3
    Format/Info                 : Audio Coding 3
    Format settings, Endianness : Big
    Codec ID                    : A_AC3
    Duration                    : 1 h 58 min
    Bit rate mode               : Constant
    Bit rate                    : 384 kb/s
    Channel(s)                  : 6 channels
    Channel positions           : Front: L C R, Side: L R, LFE
    Sampling rate               : 48.0 kHz
    Frame rate                  : 31.250 FPS (1536 spf)
    Bit depth                   : 16 bits
    Compression mode            : Lossy
    Delay relative to video     : 1 s 95 ms
    Stream size                 : 325 MiB (9%)
    Language                    : Spanish
    Service kind                : Complete Main
    Default                     : Yes
    Forced                      : No

    Audio #2
    ID                          : 3
    Format                      : AC-3
    Format/Info                 : Audio Coding 3
    Format settings, Endianness : Big
    Codec ID                    : A_AC3
    Duration                    : 1 h 58 min
    Bit rate mode               : Constant
    Bit rate                    : 384 kb/s
    Channel(s)                  : 6 channels
    Channel positions           : Front: L C R, Side: L R, LFE
    Sampling rate               : 48.0 kHz
    Frame rate                  : 31.250 FPS (1536 spf)
    Bit depth                   : 16 bits
    Compression mode            : Lossy
    Delay relative to video     : -5 ms
    Stream size                 : 325 MiB (9%)
    Language                    : English
    Service kind                : Complete Main
    Default                     : No
    Forced                      : No

    Text #1
    ID                          : 4
    Format                      : UTF-8
    Codec ID                    : S_TEXT/UTF8
    Codec ID/Info               : UTF-8 Plain Text
    Duration                    : 1 h 57 min
    Bit rate                    : 46 b/s
    Count of elements           : 1280
    Stream size                 : 40.1 KiB (0%)
    Language                    : Spanish
    Default                     : No
    Forced                      : No

    Text #2
    ID                          : 5
    Format                      : UTF-8
    Codec ID                    : S_TEXT/UTF8
    Codec ID/Info               : UTF-8 Plain Text
    Duration                    : 1 h 57 min
    Bit rate                    : 1 b/s
    Count of elements           : 36
    Stream size                 : 927 Bytes (0%)
    Title                       : FORZADOS
    Language                    : Spanish
    Default                     : Yes
    Forced                      : No

    Text #3
    ID                          : 6
    Format                      : UTF-8
    Codec ID                    : S_TEXT/UTF8
    Codec ID/Info               : UTF-8 Plain Text
    Duration                    : 1 h 57 min
    Bit rate                    : 51 b/s
    Count of elements           : 1529
    Stream size                 : 44.7 KiB (0%)
    Language                    : English
    Default                     : No
    Forced                      : No

    Menu
    00:00:00.000                : en:00:00:00.000
    00:08:54.743                : en:00:08:54.743
    00:19:51.774                : en:00:19:51.774
    00:30:01.133                : en:00:30:01.133
    00:40:00.106                : en:00:40:00.106
    00:50:13.344                : en:00:50:13.260
    01:00:49.729                : en:01:00:49.729
    01:10:29.600                : en:01:10:29.600
    01:18:05.890                : en:01:18:05.890
    01:30:12.657                : en:01:30:12.657
    01:39:09.026                : en:01:39:09.026
    01:47:05.878                : en:01:47:05.836

  • Peso: 3.52 GB

Sinopsis

Descargar Gratis Pelicula de Kong La isla Calavera hd Latino, Un grupo de viajeros, exploradores y soldados de lo más dispar se reúne para viajar a una misteriosa isla del Pacífico que no aparece en los mapas. Entre ellos están el Capitán James Conrad (Tom Hiddleston), el Teniente Coronel Packard (Samuel L. Jackson) y una fotoperiodista (Brie Larson) amante de la naturaleza. Pero al adentrarse en esta bella y también traicionera isla, los exploradores encontrarán algo absolutamente sorprendente. Sin saberlo, estarán invadiendo los dominios del mítico Kong, el gigante gorila rey de esta isla. Será Marlow (John C. Reilly), un peculiar habitante del lugar, quien les enseñe los secretos de Isla Calavera, además del resto de seres monstruosos que la habitan…

Esta película de acción y aventura sobre los orígenes del gigantesco y mítico gorila King Kong está dirigida por Jordan Vogt-Roberts (The Kings of Summer, Mash Up). Los actores protagonistas son Tom Hiddleston (La cumbre escarlata, High-Rise), Brie Larson (La habitación, Y de repente tú), Samuel L. Jackson (El hogar de Miss Peregrine para niños peculiares, Los odiosos ocho), John Goodman (Calle Cloverfield 10, Trumbo: la lista negra de Hollywood), Toby Kebbell (Un monstruo viene a verme, Warcraft. El origen) y John C. Reilly (Langosta, Guardianes de la galaxia).

NOTA: Bluray No trae Latino, esperamos el Bluray USA, cuando salga se dejara separado el audio.

Ficha técnica

Imágenes, Capturas de la película

Video trailer de la película

Enlaces de descarga

Descargar Kong La isla Calavera (2017) 1080p Latino
Descargar
Descargar Kong La isla Calavera (2017) 1080p Latino

dpeliculas

Aportes de DPeliculasHDmega la pass es:dpeliculashdmega.org Aportes de CinemaniaHD la pass es:cinemaniahdd.com
Guardado en : Acción , Aventura , Fantasía

PelícuDelas relacionadas

  • Operation Mekong (2016) 1080p Latino

    2016
    Operation Mekong (2016) 1080p Latino

    5.0 2h 4m 2016

    A lo largo del río Mekong se encuentra el llamado triángulo dorado, uno de los mayores proveedores...

    Director: Dante Lam

    Género: Acción

    Actores: Zhao Jian

  • Collide (2016) 1080p Latino

    2016
    Collide (2016) 1080p Latino

    0.0 1h 39m 2016

    Descargar Persecucion al limite hd latino. Tambien conocida como Collide 1080p Cuando uno de los atracos...

    Director: Eran Creevy

    Género: Acción

    Actores: Nicholas Hoult

  • Gold la gran estafa (2016) 1080p Latino

    2016
    Gold la gran estafa (2016) 1080p Latino

    0.0 2h 1m 2016

    Descarga Gold hd latino, también conocida La gran estafa 1080p latino Kenny Wells es un fracasado hombre...

    Director: Stephen Gaghan

    Género: Aventura

    Actores: Yothin Mapobphun

  • Juego de Tronos (2016) Temporada 6 Full Latino

    2011/03/17
    Juego de Tronos (2016) Temporada 6 Full Latino

    0.0 60 Min. 2011/03/17

    Descargar gratis Juego de Tronos (2016) Temporada 6 Full Latino Sinopsis capitulo 1: Jon Nieve está...

    Director: David Benioff

    Género: Drama

    Actores: Sophie Turner

  • Juegos de Tronos (2015) Temporada 5 Full Latino

    2011/03/17
    Juegos de Tronos (2015) Temporada 5 Full Latino

    5.0 60 Min. 2011/03/17

    Descargar gratis Juegos de Tronos (2015) Temporada 5 Full Latino  Sinopsis captitulo 1: La reina Cersei...

    Director: David Benioff

    Género: Drama

    Actores: Sophie Turner

Comentarios 18
  • kike - 28 Junio, 2017

    saldra version plateada?

    • dpelis

      Administrador
      - 28 Junio, 2017

      por la noche

  • #Cinefilo - 28 Junio, 2017

    Muchas gracias por este aporte, una pequeña duda cuando la version plateada????

    • dpelis

      Administrador
      - 28 Junio, 2017

      ahora estimado

      • #Cinefilo - 28 Junio, 2017

        Muchas Gracias, quiero agradecerles por todo este esfuerzo que ustedes hacen para llevar felicidad a nosotros los cinefilos y les agradezco tambien por subir los enlances a google drive, es muy buena la idea y es efectiva ya que por mega ya se volvio algo complicado !! Muchas gracias de todo corazon!!

  • Byron Rodriguez - 28 Junio, 2017

    cuando Subiran enlaces a Torrent?

    • dpelis

      Administrador
      - 28 Junio, 2017

      dificl ya q ya q sedear.

  • Gabriel - 26 Junio, 2017

    Descargando! Gracias!!!!!!

  • DavidContreras - 26 Junio, 2017

    Primero que nada gracias por el aporte y bueno tengo 3 puntos:
    1. porque no están los enlaces de 1fichier.
    2. descargar por mega ya no me fia nada siempre obtengo ficheros dañados por malas descargas y su limite de Gb.
    3. lo descargue todo y el fichero 3 y 4 están dañados.

    • DavidContreras - 26 Junio, 2017

      Me disculpo, no habia notado con calma los enlaces de google drive, intentare de nuevo la descarga y repondo si sucede el error o no.

      • dpelis

        Administrador
        - 26 Junio, 2017

        perfecto, confirma

    • martin omar - 26 Junio, 2017

      saludos,
      yo tambien tengo el problema #2… ultimamente casi e 25% de mis descargas contiene algun fichero danado…y tengo que volveer a descargarlo..
      cual puede ser la causa? 🙁
      uso “megadownloader v1.7”, tendra algo que ver? o tal vez por las pausas durante las descargas?

      • dpelis

        Administrador
        - 26 Junio, 2017

        mega siempre dana los archivos, pausando, recomeindo usar un gestor q no lo pause, si tabn se dana puede reparar el archivo

  • RuddyYankee - 25 Junio, 2017

    Para cuando la Plateada ??

    • dpelis

      Administrador
      - 25 Junio, 2017

      manana.

  • Héctor Rodrigo - 25 Junio, 2017

    Saldrá en versión Gris??? O será está película?

    • dpelis

      Administrador
      - 25 Junio, 2017

      si para manana estará publicada

  • Aaron Soria - 20 Junio, 2017

    Siiiii al fin gracias por subirla, la descargare, a vere y esperare la gris.