Kill Zone 2 (2015) 1080p Latino

2.818 vistas
1 estrella2 estrellas3 estrellas4 estrellas5 estrellas (1 votos, promedio: 4,00 de 5)
Cargando…

Información de Kill Zone 2 (2015) 1080p Latino

Datos de la película

  • Calidad: 1080p
  • Audio: Español Latino AC3 2.0 DVD - Chino AC3 5.1 BLURAY
  • Subtitulos: Español Latino SRT
  • Resolución: 1920x806p
  • Formato: MKV
  • Codec: H.264
  • Encoder: Dpelis
  • Mediainfo: Ver Ver
  • Kill.zon.2.2015.1080p.latino.mkv
    Format                      : Matroska
    Format version              : Version 4 / Version 2
    File size                   : 3.42 GiB
    Duration                    : 2 h 0 min
    Overall bit rate            : 4 050 kb/s
    Movie name                  : DPeliculasHDMega.ORG
    Encoded date                : UTC 2017-05-12 03:52:07 / UTC 2017-05-10T23:17:02Z
    Writing application         : mkvmerge v10.0.0 ('To Drown In You') 64bit
    Writing library             : libebml v1.3.4 + libmatroska v1.4.5 / Lavf57.7.2

    Video
    ID                          : 1
    Format                      : AVC
    Format/Info                 : Advanced Video Codec
    Format profile              : [email protected]
    Format settings, CABAC      : Yes
    Format settings, ReFrames   : 4 frames
    Codec ID                    : V_MPEG4/ISO/AVC
    Duration                    : 2 h 0 min
    Bit rate                    : 3 500 kb/s
    Width                       : 1 920 pixels
    Height                      : 808 pixels
    Display aspect ratio        : 2.40:1
    Frame rate mode             : Constant
    Frame rate                  : 23.976 (24000/1001) FPS
    Color space                 : YUV
    Chroma subsampling          : 4:2:0
    Bit depth                   : 8 bits
    Scan type                   : Progressive
    Bits/(Pixel*Frame)          : 0.094
    Stream size                 : 2.86 GiB (84%)
    Writing library             : x264 core 148 r2708 86b7198
    Encoding settings           : cabac=1 / ref=3 / deblock=1:0:0 / analyse=0x3:0x113 / me=hex / subme=7 / psy=1 / psy_rd=1.00:0.00 / mixed_ref=1 / me_range=16 / chroma_me=1 / trellis=1 / 8x8dct=1 / cqm=0 / deadzone=21,11 / fast_pskip=1 / chroma_qp_offset=-2 / threads=12 / lookahead_threads=2 / sliced_threads=0 / nr=0 / decimate=1 / interlaced=0 / bluray_compat=0 / constrained_intra=0 / bframes=3 / b_pyramid=2 / b_adapt=1 / b_bias=0 / direct=1 / weightb=1 / open_gop=0 / weightp=2 / keyint=240 / keyint_min=24 / scenecut=40 / intra_refresh=0 / rc_lookahead=40 / rc=abr / mbtree=1 / bitrate=3500 / ratetol=1.0 / qcomp=0.60 / qpmin=0 / qpmax=69 / qpstep=4 / vbv_maxrate=62500 / vbv_bufsize=78125 / nal_hrd=none / filler=0 / ip_ratio=1.40 / aq=1:1.00
    Default                     : Yes
    Forced                      : No
    Color range                 : Limited
    Color primaries             : BT.709
    Transfer characteristics    : BT.709
    Matrix coefficients         : BT.709
    Statistics Tags Issue       : mkvmerge v10.0.0 ('To Drown In You') 64bit 2017-05-12 03:52:07 / mkvmerge v10.0.0 ('To Drown In You') 64bit 2017-05-12 03:52:07 / UTC 2017-05-10T23:17:02Z
    FromStats_BitRate           : 3472227
    FromStats_Duration          : 02:00:42.652000000
    FromStats_FrameCount        : 173650
    FromStats_StreamSize        : 3143516948

    Audio #1
    ID                          : 2
    Format                      : AC-3
    Format/Info                 : Audio Coding 3
    Format settings, Endianness : Big
    Codec ID                    : A_AC3
    Duration                    : 2 h 0 min
    Bit rate mode               : Constant
    Bit rate                    : 192 kb/s
    Channel(s)                  : 2 channels
    Channel positions           : Front: L R
    Sampling rate               : 48.0 kHz
    Frame rate                  : 31.250 FPS (1536 spf)
    Bit depth                   : 16 bits
    Compression mode            : Lossy
    Delay relative to video     : -5 ms
    Stream size                 : 166 MiB (5%)
    Language                    : Spanish
    Service kind                : Complete Main
    Default                     : Yes
    Forced                      : No
    Statistics Tags Issue       : mkvmerge v10.0.0 ('To Drown In You') 64bit 2017-05-12 03:52:07 / mkvmerge v10.0.0 ('To Drown In You') 64bit 2017-05-12 03:52:07 / UTC 2017-05-10T23:17:02Z
    FromStats_BitRate           : 192000
    FromStats_Duration          : 02:00:42.656000000
    FromStats_FrameCount        : 226333
    FromStats_StreamSize        : 173823744

    Audio #2
    ID                          : 3
    Format                      : AC-3
    Format/Info                 : Audio Coding 3
    Format settings, Endianness : Big
    Codec ID                    : A_AC3
    Duration                    : 2 h 0 min
    Bit rate mode               : Constant
    Bit rate                    : 384 kb/s
    Channel(s)                  : 6 channels
    Channel positions           : Front: L C R, Side: L R, LFE
    Sampling rate               : 48.0 kHz
    Frame rate                  : 31.250 FPS (1536 spf)
    Bit depth                   : 16 bits
    Compression mode            : Lossy
    Delay relative to video     : -5 ms
    Stream size                 : 332 MiB (9%)
    Title                       : Surround
    Language                    : Chinese
    Service kind                : Complete Main
    Default                     : No
    Forced                      : No
    Statistics Tags Issue       : mkvmerge v10.0.0 ('To Drown In You') 64bit 2017-05-12 03:52:07 / mkvmerge v10.0.0 ('To Drown In You') 64bit 2017-05-12 03:52:07 / UTC 2017-05-10T23:17:02Z
    FromStats_BitRate           : 384000
    FromStats_Duration          : 02:00:42.624000000
    FromStats_FrameCount        : 226332
    FromStats_StreamSize        : 347645952

    Text
    ID                          : 4
    Format                      : UTF-8
    Codec ID                    : S_TEXT/UTF8
    Codec ID/Info               : UTF-8 Plain Text
    Language                    : Spanish
    Default                     : Yes
    Forced                      : No
    Statistics Tags Issue       : mkvmerge v10.0.0 ('To Drown In You') 64bit 2017-05-12 03:52:07 / mkvmerge v10.0.0 ('To Drown In You') 64bit 2017-05-12 03:52:07 / UTC 2017-05-10T23:17:02Z
    FromStats_BitRate           : 26
    FromStats_Duration          : 01:53:17.838000000
    FromStats_FrameCount        : 919
    FromStats_StreamSize        : 22880

  • Peso: 3.42 GB

Sinopsis

Descargar Kill Zone 2 1080p Latino Un kit de policía de Hong Kong llamada persigue una mafia importante descubrir que su llave desapareció y su testimonio fue expuesto cobertura. En la venganza el gángster secuestra y la lleva a una prisión tailandesa con una identidad falsa. Chai, un guardia de la prisión Kit de habilidades de testigos humilde y retrasa su vuelo. Cuando Chai descubre la verdadera identidad de hecho un trato con él kit, ayudarle a escapar y derrotar al grupo a cambio de Salve chica aa víctima de una forma rara de leucemia, y el kit es el único donante que puede salvarla.

 

Audio DVD Latino, editado para adaptación del video 1080p

Ficha técnica

  • Titulo original: Kill Zone 2
  • Fecha de lanzamiento: 18-06-2015 (China)
  • Director: Soi Cheang
  • Género: Acción, Crimen, Drama
  • Puntuación: 4.0 1 votos
  • Duración:
    2h 0m

Imágenes, Capturas de la película

Video trailer de la película

Enlaces de descarga

Descargar Kill Zone 2 (2015) 1080p Latino
Descargar

dpeliculas

Aportes de DPeliculasHDmega la pass es:dpeliculashdmega.org Aportes de CinemaniaHD la pass es:cinemaniahdd.com
Guardado en : Acción , Crimen , Drama

PelícuDelas relacionadas

  • It – Eso (1990) WEBDL 1080p Latino

    1990
    It – Eso (1990) WEBDL 1080p Latino

    0.0 3h 7m 1990

    Descargar Stephen King's It  hd latino, tambien conocida como It o ESO Un tranquilo y pequeño pueblo...

    Director: Tommy Lee Wallace

    Género: Drama

    Actores: Tim Reid

  • The Walking Dead (2017) Temporada 7 Full Latino

    2016
    The Walking Dead (2017) Temporada 7 Full Latino

    0.0 0h 42m 2016

    Descarga The Walking Dead Temporada 7 hd latino, Hasta este punto, nuestros personajes han vivido a través...

    Director: Frank Darabont

    Género: Drama

    Actores: Norman Reedus

  • La momia (2017) Webdl 1080p Latino

    2017
    La momia (2017) Webdl 1080p Latino

    4.0 1h 50m 2017

    Descargar La momia 2017 1080p webdl  Latino, esta pelicula estara disponible con audio latino final...

    Director: Jo Beckett

    Género: Acción

    Actores: Vera Chok

Comentarios 2
  • #Cinefilo - 12 Mayo, 2017

    Muchas Gracias por este aporte, tengo una pequeña duda, la subiran en Full o esta sera la version final, Gracias por su atención

    • dpelis

      Administrador
      - 13 Mayo, 2017

      pueda que si pero mas adelante