Kill em All (2017) Full Español

2.135 vistas
1 estrella2 estrellas3 estrellas4 estrellas5 estrellas (1 votos, promedio: 5,00 de 5)
Cargando…

Información de Kill em All (2017) Full Español

Datos de la película

  • Calidad: Full 1080p
  • Audio: Español Castellano DTS 5.1 BLURAY - Ingles DTS 5.1 BLURAY
  • Subtitulos: Español PGS - Ingles PGS
  • Resolución: 1920x1080p
  • Formato: MKV
  • Codec: H.264
  • Encoder: Dpelis
  • Mediainfo: Ver Ver
  • Kill em.all.2017.full.Castellano.mkv
    Format                      : Matroska
    Format version              : Version 4 / Version 2
    File size                   : 4.87 GiB
    Duration                    : 1 h 35 min
    Overall bit rate            : 7 270 kb/s
    Movie name                  : DPeliculasHDMega.ORG
    Encoded date                : UTC 2017-05-23 12:02:41 / UTC 2017-05-23T08:45:43Z
    Writing application         : mkvmerge v10.0.0 ('To Drown In You') 64bit
    Writing library             : libebml v1.3.4 + libmatroska v1.4.5 / Lavf57.7.2

    Video
    ID                          : 1
    Format                      : AVC
    Format/Info                 : Advanced Video Codec
    Format profile              : [email protected]
    Format settings, CABAC      : Yes
    Format settings, ReFrames   : 4 frames
    Codec ID                    : V_MPEG4/ISO/AVC
    Duration                    : 1 h 35 min
    Bit rate                    : 4 107 kb/s
    Width                       : 1 920 pixels
    Height                      : 1 080 pixels
    Display aspect ratio        : 16:9
    Frame rate mode             : Constant
    Frame rate                  : 23.976 (24000/1001) FPS
    Color space                 : YUV
    Chroma subsampling          : 4:2:0
    Bit depth                   : 8 bits
    Scan type                   : Progressive
    Bits/(Pixel*Frame)          : 0.083
    Stream size                 : 2.75 GiB (56%)
    Writing library             : x264 core 148 r2708 86b7198
    Encoding settings           : cabac=1 / ref=4 / deblock=1:0:0 / analyse=0x3:0x133 / me=esa / subme=10 / psy=1 / psy_rd=1.00:0.00 / mixed_ref=1 / me_range=24 / chroma_me=1 / trellis=2 / 8x8dct=1 / cqm=0 / deadzone=21,11 / fast_pskip=1 / chroma_qp_offset=-2 / threads=34 / lookahead_threads=5 / sliced_threads=0 / nr=0 / decimate=1 / interlaced=0 / bluray_compat=0 / constrained_intra=0 / bframes=8 / b_pyramid=2 / b_adapt=2 / b_bias=0 / direct=3 / weightb=1 / open_gop=0 / weightp=2 / keyint=240 / keyint_min=24 / scenecut=40 / intra_refresh=0 / rc_lookahead=60 / rc=crf / mbtree=1 / crf=20.0 / qcomp=0.60 / qpmin=0 / qpmax=69 / qpstep=4 / vbv_maxrate=62500 / vbv_bufsize=78125 / crf_max=0.0 / nal_hrd=none / filler=0 / ip_ratio=1.40 / aq=1:1.00
    Default                     : Yes
    Forced                      : No
    Color range                 : Limited
    Color primaries             : BT.709
    Transfer characteristics    : BT.709
    Matrix coefficients         : BT.709
    Statistics Tags Issue       : mkvmerge v10.0.0 ('To Drown In You') 64bit 2017-05-23 12:02:41 / mkvmerge v10.0.0 ('To Drown In You') 64bit 2017-05-23 12:02:41 / UTC 2017-05-23T08:45:43Z
    FromStats_BitRate           : 4225417
    FromStats_Duration          : 01:35:50.704000000
    FromStats_FrameCount        : 137879
    FromStats_StreamSize        : 3037390950

    Audio #1
    ID                          : 2
    Format                      : DTS
    Format/Info                 : Digital Theater Systems
    Mode                        : 16
    Format settings, Endianness : Big
    Codec ID                    : A_DTS
    Duration                    : 1 h 35 min
    Bit rate mode               : Constant
    Bit rate                    : 1 509 kb/s
    Channel(s)                  : 6 channels
    Channel positions           : Front: L C R, Side: L R, LFE
    Sampling rate               : 48.0 kHz
    Frame rate                  : 93.750 FPS (512 spf)
    Bit depth                   : 16 bits
    Compression mode            : Lossy
    Stream size                 : 1.01 GiB (21%)
    Title                       : Surround
    Language                    : Spanish
    Default                     : Yes
    Forced                      : No
    Statistics Tags Issue       : mkvmerge v10.0.0 ('To Drown In You') 64bit 2017-05-23 12:02:41 / mkvmerge v10.0.0 ('To Drown In You') 64bit 2017-05-23 12:02:41 / UTC 2017-05-23T08:45:43Z
    FromStats_BitRate           : 1508999
    FromStats_Duration          : 01:35:50.742000000
    FromStats_FrameCount        : 539132
    FromStats_StreamSize        : 1084733584

    Audio #2
    ID                          : 3
    Format                      : DTS
    Format/Info                 : Digital Theater Systems
    Mode                        : 16
    Format settings, Endianness : Big
    Codec ID                    : A_DTS
    Duration                    : 1 h 35 min
    Bit rate mode               : Constant
    Bit rate                    : 1 509 kb/s
    Channel(s)                  : 6 channels
    Channel positions           : Front: L C R, Side: L R, LFE
    Sampling rate               : 48.0 kHz
    Frame rate                  : 93.750 FPS (512 spf)
    Bit depth                   : 16 bits
    Compression mode            : Lossy
    Stream size                 : 1.01 GiB (21%)
    Title                       : Surround
    Language                    : English
    Default                     : No
    Forced                      : No
    Statistics Tags Issue       : mkvmerge v10.0.0 ('To Drown In You') 64bit 2017-05-23 12:02:41 / mkvmerge v10.0.0 ('To Drown In You') 64bit 2017-05-23 12:02:41 / UTC 2017-05-23T08:45:43Z
    FromStats_BitRate           : 1508999
    FromStats_Duration          : 01:35:50.742000000
    FromStats_FrameCount        : 539132
    FromStats_StreamSize        : 1084733584

    Text #1
    ID                          : 4
    Format                      : PGS
    Muxing mode                 : zlib
    Codec ID                    : S_HDMV/PGS
    Codec ID/Info               : Picture based subtitle format used on BDs/HD-DVDs
    Language                    : Spanish
    Default                     : No
    Forced                      : No
    Statistics Tags Issue       : mkvmerge v10.0.0 ('To Drown In You') 64bit 2017-05-23 12:02:41 / mkvmerge v10.0.0 ('To Drown In You') 64bit 2017-05-23 12:02:41 / UTC 2017-05-23T08:45:43Z
    FromStats_BitRate           : 6814
    FromStats_Duration          : 01:35:25.554000000
    FromStats_FrameCount        : 1597
    FromStats_StreamSize        : 4876952

    Text #2
    ID                          : 5
    Format                      : PGS
    Muxing mode                 : zlib
    Codec ID                    : S_HDMV/PGS
    Codec ID/Info               : Picture based subtitle format used on BDs/HD-DVDs
    Language                    : Spanish
    Default                     : No
    Forced                      : No
    Statistics Tags Issue       : mkvmerge v10.0.0 ('To Drown In You') 64bit 2017-05-23 12:02:41 / mkvmerge v10.0.0 ('To Drown In You') 64bit 2017-05-23 12:02:41 / UTC 2017-05-23T08:45:43Z
    FromStats_BitRate           : 6831
    FromStats_Duration          : 01:35:25.554000000
    FromStats_FrameCount        : 1599
    FromStats_StreamSize        : 4888926

    Text #3
    ID                          : 6
    Format                      : PGS
    Muxing mode                 : zlib
    Codec ID                    : S_HDMV/PGS
    Codec ID/Info               : Picture based subtitle format used on BDs/HD-DVDs
    Language                    : English
    Default                     : No
    Forced                      : No
    Statistics Tags Issue       : mkvmerge v10.0.0 ('To Drown In You') 64bit 2017-05-23 12:02:41 / mkvmerge v10.0.0 ('To Drown In You') 64bit 2017-05-23 12:02:41 / UTC 2017-05-23T08:45:43Z
    FromStats_BitRate           : 9559
    FromStats_Duration          : 01:34:28.622000000
    FromStats_FrameCount        : 2117
    FromStats_StreamSize        : 6773360

    Menu
    00:00:00.000                : :Chapter 1
    00:10:02.185                : :Chapter 2
    00:15:02.860                : :Chapter 3
    00:20:25.599                : :Chapter 4
    00:23:32.661                : :Chapter 5
    00:30:05.679                : :Chapter 6
    00:38:21.716                : :Chapter 7
    00:43:43.454                : :Chapter 8
    00:48:37.873                : :Chapter 9
    00:53:32.000                : :Chapter 10
    00:58:52.279                : :Chapter 11
    01:03:57.667                : :Chapter 12
    01:08:30.356                : :Chapter 13
    01:12:43.734                : :Chapter 14
    01:21:29.968                : :Chapter 15
    01:28:14.039                : :Chapter 16

  • Peso: 4.87 GB

Sinopsis

Después de un tiroteo masivo, un misterioso extraño (Van Damme) se produce en un hospital local en el borde de la muerte. Luego viene una banda extranjera sin pudor al hospital para dar caza. Su enfermera, el testigo único superviviente de los lotes de seguimiento, se enfrenta a un interrogatorio del FBI que se abre una red de intriga y venganza internacional. Con suficientes giros, Kill’em All se mantiene adivinando hasta que se disparó la última bala.

Ficha técnica

  • Titulo original: Kill 'Em All
  • Fecha de lanzamiento: 06-06-2017 (United States of America)
  • Director: Peter Malota
  • Género: Acción
  • Puntuación: 5.0 1 votos
  • Duración:
    1h 36m

Imágenes, Capturas de la película

Video trailer de la película

Enlaces de descarga

Descargar Kill em All (2017) Full Español
Descargar

dpeliculas

Aportes de DPeliculasHDmega la pass es:dpeliculashdmega.org Aportes de CinemaniaHD la pass es:cinemaniahdd.com
Guardado en : Acción

PelícuDelas relacionadas

  • Operation Mekong (2016) 1080p Latino

    2016
    Operation Mekong (2016) 1080p Latino

    0.0 2h 4m 2016

    A lo largo del río Mekong se encuentra el llamado triángulo dorado, uno de los mayores proveedores...

    Director: Dante Lam

    Género: Acción

    Actores: Zhao Jian

  • Collide (2016) 1080p Latino

    2016
    Collide (2016) 1080p Latino

    0.0 1h 39m 2016

    Descargar Persecucion al limite hd latino. Tambien conocida como Collide 1080p Cuando uno de los atracos...

    Director: Eran Creevy

    Género: Acción

    Actores: Nicholas Hoult

Comentarios 8
  • slash - 18 Junio, 2017

    Gracias cinemania por la película de Van Damme, la película traía subtítulos en castellano y latino, te dejo los dos, saludos y gracias.
    https://mega.nz/#F!k80QAKTD!AVXDpwEypTGiAq_NwMJgkg

    • dpelis

      Administrador
      - 18 Junio, 2017

      Gracias por los subtitulos latino Van Damme

  • Byron - 24 Mayo, 2017

    Noooo, en castellano nooooo, no habia audio latino? solo me deje guiar por lo que decia full español y perdi un par de horas de mi vida ajajaja

    • dpelis

      Administrador
      - 24 Mayo, 2017

      si hubiera traído latino, entonces tendría latino

      • #Cinefilo - 24 Mayo, 2017

        Pues la ves pasada habian puesto castellno en una pelicula y tenia era audio latino, aveces toca preguntar por s no se han equivocado, de todos modos gracias por el gesto 🙂

        • dpelis

          Administrador
          - 25 Mayo, 2017

          si pero en esta lo espeficique en la fanpage

      • Byron - 25 Mayo, 2017

        Es que yo no veo la fanpage amigo, solo me meto aqui y nada mas, siempre me doy cuenta pero esta vez se me paso

        • dpelis

          Administrador
          - 25 Mayo, 2017

          entiendo