Advertise here

Kids in Love (2016) 1080p Latino

1.478 vistas
1 estrella2 estrellas3 estrellas4 estrellas5 estrellas (2 votos, promedio: 5,00 de 5)
Cargando…

Información de Kids in Love (2016) 1080p Latino

Datos de la película

  • Calidad: 1080p
  • Audio: Español Latino AC3 2.0 DVD - Ingles AC3 5.1 BLURAY
  • Subtitulos: Español Latino PGS - Ingles PGS
  • Resolución: 1920x804p
  • Formato: MKV
  • Codec: H.264
  • Encoder: Dpelis
  • Mediainfo: Clic para Mostrar Datos Ver
  • Kids.in.love.2016...mkv
    Format                      : Matroska
    Format version              : Version 4 / Version 2
    File size                   : 2.57 GiB
    Duration                    : 1 h 26 min
    Overall bit rate            : 4 243 kb/s
    Encoded date                : UTC 2017-05-11T04:04:15Z
    Writing application         : HandBrake 1.0.7 2017040900
    Writing library             : Lavf57.7.2

    Video
    ID                          : 1
    Format                      : AVC
    Format/Info                 : Advanced Video Codec
    Format profile              : [email protected]
    Format settings, CABAC      : Yes
    Format settings, ReFrames   : 4 frames
    Codec ID                    : V_MPEG4/ISO/AVC
    Duration                    : 1 h 26 min
    Bit rate                    : 3 500 kb/s
    Width                       : 1 920 pixels
    Height                      : 804 pixels
    Display aspect ratio        : 2.40:1
    Frame rate mode             : Constant
    Frame rate                  : 24.000 FPS
    Color space                 : YUV
    Chroma subsampling          : 4:2:0
    Bit depth                   : 8 bits
    Scan type                   : Progressive
    Bits/(Pixel*Frame)          : 0.094
    Stream size                 : 2.05 GiB (80%)
    Writing library             : x264 core 148 r2708 86b7198
    Encoding settings           : cabac=1 / ref=3 / deblock=1:0:0 / analyse=0x3:0x113 / me=hex / subme=7 / psy=1 / psy_rd=1.00:0.00 / mixed_ref=1 / me_range=16 / chroma_me=1 / trellis=1 / 8x8dct=1 / cqm=0 / deadzone=21,11 / fast_pskip=1 / chroma_qp_offset=-2 / threads=12 / lookahead_threads=2 / sliced_threads=0 / nr=0 / decimate=1 / interlaced=0 / bluray_compat=0 / constrained_intra=0 / bframes=3 / b_pyramid=2 / b_adapt=1 / b_bias=0 / direct=1 / weightb=1 / open_gop=0 / weightp=2 / keyint=240 / keyint_min=24 / scenecut=40 / intra_refresh=0 / rc_lookahead=40 / rc=abr / mbtree=1 / bitrate=3500 / ratetol=1.0 / qcomp=0.60 / qpmin=0 / qpmax=69 / qpstep=4 / vbv_maxrate=62500 / vbv_bufsize=78125 / nal_hrd=none / filler=0 / ip_ratio=1.40 / aq=1:1.00
    Default                     : Yes
    Forced                      : No
    Color range                 : Limited
    Color primaries             : BT.709
    Transfer characteristics    : BT.709
    Matrix coefficients         : BT.709

    Audio #1
    ID                          : 2
    Format                      : AC-3
    Format/Info                 : Audio Coding 3
    Format settings, Endianness : Big
    Codec ID                    : A_AC3
    Duration                    : 1 h 26 min
    Bit rate mode               : Constant
    Bit rate                    : 384 kb/s
    Channel(s)                  : 2 channels
    Channel positions           : Front: L R
    Sampling rate               : 48.0 kHz
    Frame rate                  : 31.250 FPS (1536 spf)
    Bit depth                   : 16 bits
    Compression mode            : Lossy
    Delay relative to video     : -5 ms
    Stream size                 : 238 MiB (9%)
    Title                       : Stereo
    Language                    : Spanish
    Service kind                : Complete Main
    Default                     : Yes
    Forced                      : No

    Audio #2
    ID                          : 3
    Format                      : AC-3
    Format/Info                 : Audio Coding 3
    Format settings, Endianness : Big
    Codec ID                    : A_AC3
    Duration                    : 1 h 26 min
    Bit rate mode               : Constant
    Bit rate                    : 384 kb/s
    Channel(s)                  : 6 channels
    Channel positions           : Front: L C R, Side: L R, LFE
    Sampling rate               : 48.0 kHz
    Frame rate                  : 31.250 FPS (1536 spf)
    Bit depth                   : 16 bits
    Compression mode            : Lossy
    Delay relative to video     : -5 ms
    Stream size                 : 238 MiB (9%)
    Title                       : Surround
    Language                    : English
    Service kind                : Complete Main
    Default                     : No
    Forced                      : No

    Text
    ID                          : 4
    Format                      : PGS
    Codec ID                    : S_HDMV/PGS
    Codec ID/Info               : Picture based subtitle format used on BDs/HD-DVDs
    Language                    : Spanish
    Default                     : No
    Forced                      : No

    Menu
    00:00:00.000                : :Chapter 1
    00:03:42.708                : :Chapter 2
    00:09:29.583                : :Chapter 3
    00:15:48.250                : :Chapter 4
    00:19:58.958                : :Chapter 5
    00:25:12.375                : :Chapter 6
    00:29:30.458                : :Chapter 7
    00:34:40.500                : :Chapter 8
    00:40:07.417                : :Chapter 9
    00:44:00.875                : :Chapter 10
    00:47:02.042                : :Chapter 11
    00:51:37.250                : :Chapter 12
    00:56:28.708                : :Chapter 13
    01:03:35.625                : :Chapter 14
    01:10:09.417                : :Chapter 15
    01:15:09.750                : :Chapter 16
    01:19:05.708                : :Chapter 17
    01:22:40.583                : :Chapter 18

  • Peso: 2.57 GB

Sinopsis

Descargar Película Kids in Love 1080p latino. del 2016 genero comedia y romance con actores jovenes, Derivando su brecha con su año de planes de formación y de viaje, Jack siempre ha sospechado que había más en la vida que eso. Un encuentro casual con la bella y etérea Evelyn convierte su vida radicalmente fuera de curso.

Ficha técnica

  • Titulo original: Kids in Love
  • Fecha de lanzamiento: 26-08-2016 (United Kingdom)
  • Director: Chris Foggin
  • Género: Drama
  • Puntuación: 5.0 2 votos
  • Duración:
    1h 26m

Video trailer de la película

Enlaces de descarga

Descargar Kids in Love (2016) 1080p Latino
Descargar

dpeliculas

Aportes de DPeliculasHDmega la pass es:dpeliculashdmega.org Aportes de CinemaniaHD la pass es:cinemaniahdd.com
Guardado en : Drama

Películas relacionadas

  • Your name (2016) Full 1080p Latino

    2016
    Your name (2016) Full 1080p Latino

    5.0 1 h 46 min 2016

    La película nos presenta a dos jóvenes, Mitsuha y Taki. La primera es una estudiante de instituto que...

    Director: Makoto Shinkai

    Género: Animación

    Actores: Tani Kanon

  • Atrápame si puedes (2002) Full 1080p Latino

    2002
    Atrápame si puedes (2002) Full 1080p Latino

    0.0 2h 20m 2002

    Frank Abagnale Jr. trabajó como médico, abogado y copiloto de una de las grandes líneas aéreas, todo...

    Director: Steven Spielberg

    Género: Crimen

    Actores: William Lauzon

  • Mi Nueva Yo (2017) WEBDL 1080p Latino

    2017
    Mi Nueva Yo (2017) WEBDL 1080p Latino

    0.0 1 h 37 min 2017

    Una madre de dos hijos se acaba de separar y decide iniciar una nueva vida en Los Ángeles. Los acontecimientos...

    Director: Hallie Meyers-Shyer

    Género: Comedia

    Actores: Reid Scott

  • The Walking Dead (2017) Temporada 8 WEBDL 1080p Latino

    2017
    The Walking Dead (2017) Temporada 8 WEBDL 1080p Latino

    5.0 0h 42m 2017

    Rick, Maggie y Ezekiel reúnen a sus comunidades para derrotar a Negan y los salvadores. Gregory intenta...

    Director: Frank Darabont

    Género: Action & Adventure

    Actores: Norman Reedus

Comentarios 1