Kicks (2016) 1080p Latino

1.085 vistas
1 estrella2 estrellas3 estrellas4 estrellas5 estrellas (Ninguna valoración todavía)
Cargando…

Información de Kicks (2016) 1080p Latino

Datos de la película

  • Calidad: 1080p
  • Audio: Español Latino AC3 2.0 DVD - Ingles AC3 5.1 BLURAY
  • Subtitulos: Español Latino SRT - Ingles SRT
  • Resolución: 1920x804p
  • Formato: MKV
  • Codec: H.264
  • Encoder: Dpelis
  • Mediainfo: Ver Ver
  • Kicks.2016.1080p.larino.Dpelis.mkv
    Format                      : Matroska
    Format version              : Version 4 / Version 2
    File size                   : 2.46 GiB
    Duration                    : 1 h 27 min
    Overall bit rate            : 4 040 kb/s
    Movie name                  : DPeliculasHDMega.ORG
    Encoded date                : UTC 2017-05-14 00:22:08 / UTC 2017-05-13T22:41:19Z
    Writing application         : mkvmerge v10.0.0 ('To Drown In You') 64bit
    Writing library             : libebml v1.3.4 + libmatroska v1.4.5 / Lavf57.7.2

    Video
    ID                          : 1
    Format                      : AVC
    Format/Info                 : Advanced Video Codec
    Format profile              : [email protected]
    Format settings, CABAC      : Yes
    Format settings, ReFrames   : 4 frames
    Codec ID                    : V_MPEG4/ISO/AVC
    Duration                    : 1 h 27 min
    Bit rate                    : 3 320 kb/s
    Nominal bit rate            : 3 500 kb/s
    Width                       : 1 920 pixels
    Height                      : 804 pixels
    Display aspect ratio        : 2.40:1
    Frame rate mode             : Constant
    Frame rate                  : 23.976 (24000/1001) FPS
    Color space                 : YUV
    Chroma subsampling          : 4:2:0
    Bit depth                   : 8 bits
    Scan type                   : Progressive
    Bits/(Pixel*Frame)          : 0.090
    Stream size                 : 2.02 GiB (82%)
    Writing library             : x264 core 148 r2708 86b7198
    Encoding settings           : cabac=1 / ref=3 / deblock=1:0:0 / analyse=0x3:0x113 / me=hex / subme=7 / psy=1 / psy_rd=1.00:0.00 / mixed_ref=1 / me_range=16 / chroma_me=1 / trellis=1 / 8x8dct=1 / cqm=0 / deadzone=21,11 / fast_pskip=1 / chroma_qp_offset=-2 / threads=12 / lookahead_threads=2 / sliced_threads=0 / nr=0 / decimate=1 / interlaced=0 / bluray_compat=0 / constrained_intra=0 / bframes=3 / b_pyramid=2 / b_adapt=1 / b_bias=0 / direct=1 / weightb=1 / open_gop=0 / weightp=2 / keyint=240 / keyint_min=24 / scenecut=40 / intra_refresh=0 / rc_lookahead=40 / rc=abr / mbtree=1 / bitrate=3500 / ratetol=1.0 / qcomp=0.60 / qpmin=0 / qpmax=69 / qpstep=4 / vbv_maxrate=62500 / vbv_bufsize=78125 / nal_hrd=none / filler=0 / ip_ratio=1.40 / aq=1:1.00
    Default                     : Yes
    Forced                      : No
    Color range                 : Limited
    Color primaries             : BT.709
    Transfer characteristics    : BT.709
    Matrix coefficients         : BT.709
    Statistics Tags Issue       : mkvmerge v10.0.0 ('To Drown In You') 64bit 2017-05-14 00:22:08 / mkvmerge v10.0.0 ('To Drown In You') 64bit 2017-05-14 00:22:08 / UTC 2017-05-13T22:41:19Z
    FromStats_BitRate           : 3382087
    FromStats_Duration          : 01:27:04.970000000
    FromStats_FrameCount        : 125274
    FromStats_StreamSize        : 2208913370

    Audio #1
    ID                          : 2
    Format                      : AC-3
    Format/Info                 : Audio Coding 3
    Format settings, Endianness : Big
    Codec ID                    : A_AC3
    Duration                    : 1 h 27 min
    Bit rate mode               : Constant
    Bit rate                    : 256 kb/s
    Channel(s)                  : 2 channels
    Channel positions           : Front: L R
    Sampling rate               : 48.0 kHz
    Frame rate                  : 31.250 FPS (1536 spf)
    Bit depth                   : 16 bits
    Compression mode            : Lossy
    Delay relative to video     : -5 ms
    Stream size                 : 159 MiB (6%)
    Title                       : Stereo
    Language                    : Spanish
    Service kind                : Complete Main
    Default                     : Yes
    Forced                      : No
    Statistics Tags Issue       : mkvmerge v10.0.0 ('To Drown In You') 64bit 2017-05-14 00:22:08 / mkvmerge v10.0.0 ('To Drown In You') 64bit 2017-05-14 00:22:08 / UTC 2017-05-13T22:41:19Z
    FromStats_BitRate           : 256000
    FromStats_Duration          : 01:26:30.240000000
    FromStats_FrameCount        : 162195
    FromStats_StreamSize        : 166087680

    Audio #2
    ID                          : 3
    Format                      : AC-3
    Format/Info                 : Audio Coding 3
    Format settings, Endianness : Big
    Codec ID                    : A_AC3
    Duration                    : 1 h 27 min
    Bit rate mode               : Constant
    Bit rate                    : 384 kb/s
    Channel(s)                  : 6 channels
    Channel positions           : Front: L C R, Side: L R, LFE
    Sampling rate               : 48.0 kHz
    Frame rate                  : 31.250 FPS (1536 spf)
    Bit depth                   : 16 bits
    Compression mode            : Lossy
    Delay relative to video     : -5 ms
    Stream size                 : 239 MiB (10%)
    Title                       : Surround
    Language                    : English
    Service kind                : Complete Main
    Default                     : No
    Forced                      : No
    Statistics Tags Issue       : mkvmerge v10.0.0 ('To Drown In You') 64bit 2017-05-14 00:22:08 / mkvmerge v10.0.0 ('To Drown In You') 64bit 2017-05-14 00:22:08 / UTC 2017-05-13T22:41:19Z
    FromStats_BitRate           : 384000
    FromStats_Duration          : 01:27:04.928000000
    FromStats_FrameCount        : 163279
    FromStats_StreamSize        : 250796544

    Text #1
    ID                          : 4
    Format                      : PGS
    Muxing mode                 : zlib
    Codec ID                    : S_HDMV/PGS
    Codec ID/Info               : Picture based subtitle format used on BDs/HD-DVDs
    Language                    : Spanish
    Default                     : No
    Forced                      : No
    Statistics Tags Issue       : mkvmerge v10.0.0 ('To Drown In You') 64bit 2017-05-14 00:22:08 / mkvmerge v10.0.0 ('To Drown In You') 64bit 2017-05-14 00:22:08 / UTC 2017-05-13T22:41:19Z
    FromStats_BitRate           : 7835
    FromStats_Duration          : 01:26:58.505000000
    FromStats_FrameCount        : 1756
    FromStats_StreamSize        : 5110988

    Text #2
    ID                          : 5
    Format                      : PGS
    Muxing mode                 : zlib
    Codec ID                    : S_HDMV/PGS
    Codec ID/Info               : Picture based subtitle format used on BDs/HD-DVDs
    Language                    : English
    Default                     : No
    Forced                      : No
    Statistics Tags Issue       : mkvmerge v10.0.0 ('To Drown In You') 64bit 2017-05-14 00:22:08 / mkvmerge v10.0.0 ('To Drown In You') 64bit 2017-05-14 00:22:08 / UTC 2017-05-13T22:41:19Z
    FromStats_BitRate           : 10569
    FromStats_Duration          : 01:21:01.732000000
    FromStats_FrameCount        : 1990
    FromStats_StreamSize        : 6423404

    Text #3
    ID                          : 6
    Format                      : UTF-8
    Codec ID                    : S_TEXT/UTF8
    Codec ID/Info               : UTF-8 Plain Text
    Language                    : Spanish
    Default                     : Yes
    Forced                      : No
    Statistics Tags Issue       : mkvmerge v10.0.0 ('To Drown In You') 64bit 2017-05-14 00:22:08 / mkvmerge v10.0.0 ('To Drown In You') 64bit 2017-05-14 00:22:08 / UTC 2017-05-13T22:41:19Z
    FromStats_BitRate           : 91
    FromStats_Duration          : 00:00:10.100000000
    FromStats_FrameCount        : 1
    FromStats_StreamSize        : 115

    Menu
    00:00:00.000                : :Chapter 1
    00:04:32.522                : :Chapter 2
    00:08:09.990                : :Chapter 3
    00:11:38.823                : :Chapter 4
    00:17:09.946                : :Chapter 5
    00:22:19.547                : :Chapter 6
    00:25:38.287                : :Chapter 7
    00:29:47.828                : :Chapter 8
    00:32:24.693                : :Chapter 9
    00:38:34.020                : :Chapter 10
    00:43:52.755                : :Chapter 11
    00:49:37.850                : :Chapter 12
    00:54:47.910                : :Chapter 13
    00:58:45.147                : :Chapter 14
    01:03:01.611                : :Chapter 15
    01:05:53.867                : :Chapter 16
    01:09:36.255                : :Chapter 17
    01:11:32.789                : :Chapter 18
    01:15:41.537                : :Chapter 19
    01:21:06.278                : :Chapter 20

  • Peso: 2.46 GB

Sinopsis

Descargar Pelicula Completa Kicks 1080p Latino. Brandon es un joven de 15 años cuyo sueño es tener un par de zapatillas Air Jordan. Poco después de ellos en sus manos, un grupo local roba, por lo que Brandon y dos amigos se embarcan en una peligrosa misión para recuperar Oakland.

Ficha técnica

  • Titulo original: Kicks
  • Fecha de lanzamiento: 09-09-2016 (United States of America)
  • Director: Justin Tipping
  • Género: Aventura
  • Puntuación: 0.0 0 votos
  • Duración:
    1h 20m

Imágenes, Capturas de la película

Video trailer de la película

Enlaces de descarga

Descargar Kicks (2016) 1080p Latino
Descargar

dpeliculas

Aportes de DPeliculasHDmega la pass es:dpeliculashdmega.org Aportes de CinemaniaHD la pass es:cinemaniahdd.com
Guardado en : Aventura

PelícuDelas relacionadas

  • La momia (2017) Webdl 1080p Latino

    2017
    La momia (2017) Webdl 1080p Latino

    4.0 1h 50m 2017

    Descargar La momia 2017 1080p webdl  Latino, esta pelicula estara disponible con audio latino final...

    Director: Jo Beckett

    Género: Acción

    Actores: Vera Chok

  • Batman & Harley Quinn (2017) Full Latino

    2017
    Batman & Harley Quinn (2017) Full Latino

    0.0 0h 0m 2017

    Descargar gratis Batman & Harley Quinn (2017) Full Latino. Batman y Nighwing debrán unir fuerzas...

    Director: Sam Liu

    Género: Acción

    Actores: Trevor Devall

  • Spark: A Space Tail (2016) 1080p Latino

    2017
    Spark: A Space Tail (2016) 1080p Latino

    0.0 1h 30m 2017

    Hace 13 años el malvado General Zhong tomó el control del planeta Bana. Ahora no solo quiere gobernar...

    Director: Aaron Woodley

    Género: Animación

    Actores: Susan Sarandon

Comentarios 5