Advertise here

La Liga de la Justicia Oscura (2016) Full 1080p Latino

2.107 vistas
1 estrella2 estrellas3 estrellas4 estrellas5 estrellas (Ninguna valoración todavía)
Cargando…

Información de La Liga de la Justicia Oscura (2016) Full 1080p Latino

la liga la justicia oscura x265

Datos de la película

  • Calidad: Full 1080p
  • Audio: Español Latino AC3 5.1 BLURAY - Ingles DTS 5.1 BLURAY
  • Subtitulos: Español Latino PGS - Ingles PGS
  • Resolución: 1920x1080p
  • Formato: MKV
  • Codec: H.265
  • Encoder: SebastianHDx
  • Mediainfo: Clic para Mostrar Datos Ver
  • Justice League Dark (2017) 1080p BluRay x265 HEVC DTS Dual Latino.mkv
    Format                      : Matroska
    Format version              : Version 4 / Version 2
    File size                   : 1.84 GiB
    Duration                    : 1h 15mn
    Overall bit rate            : 3 479 Kbps
    Encoded date                : UTC 2017-02-01 01:26:11
    Writing application         : mkvmerge v8.6.1 ('Flying') 64bit
    Writing library             : libebml v1.3.3 + libmatroska v1.4.4
    DURATION                    : 01:12:43.359000000
    NUMBER_OF_FRAMES            : 14
    NUMBER_OF_BYTES             : 151158
    _STATISTICS_WRITING_APP     : mkvmerge v8.6.1 ('Flying') 64bit
    _STATISTICS_WRITING_DATE_UT : 2017-02-01 01:26:11
    _STATISTICS_TAGS            : BPS DURATION NUMBER_OF_FRAMES NUMBER_OF_BYTES

    Video
    ID                          : 1
    Format                      : HEVC
    Format/Info                 : High Efficiency Video Coding
    Format profile              : [email protected]@Main
    Codec ID                    : V_MPEGH/ISO/HEVC
    Duration                    : 1h 15mn
    Bit rate                    : 1 261 Kbps
    Width                       : 1 920 pixels
    Height                      : 1 080 pixels
    Display aspect ratio        : 16:9
    Frame rate mode             : Constant
    Frame rate                  : 23.976 fps
    Color space                 : YUV
    Chroma subsampling          : 4:2:0
    Bit depth                   : 8 bits
    Bits/(Pixel*Frame)          : 0.025
    Stream size                 : 684 MiB (36%)
    Writing library             : x265 1.9:[Windows][GCC 4.9.0][64 bit] 8bit
    Encoding settings           : wpp / ctu=64 / min-cu-size=8 / max-tu-size=32 / tu-intra-depth=1 / tu-inter-depth=1 / me=3 / subme=3 / merange=57 / rect / no-amp / max-merge=3 / temporal-mvp / no-early-skip / rdpenalty=0 / no-tskip / no-tskip-fast / strong-intra-smoothing / no-lossless / no-cu-lossless / no-constrained-intra / no-fast-intra / open-gop / no-temporal-layers / interlace=0 / keyint=240 / min-keyint=24 / scenecut=40 / rc-lookahead=25 / lookahead-slices=4 / bframes=4 / bframe-bias=0 / b-adapt=2 / ref=4 / limit-refs=3 / limit-modes / weightp / no-weightb / aq-mode=1 / qg-size=32 / aq-strength=1.00 / cbqpoffs=0 / crqpoffs=0 / rd=4 / psy-rd=2.00 / rdoq-level=2 / psy-rdoq=1.00 / signhide / deblock / sao / no-sao-non-deblock / b-pyramid / cutree / no-intra-refresh / rc=crf / crf=20.0 / qcomp=0.60 / qpmin=0 / qpmax=51 / qpstep=4 / ipratio=1.40 / pbratio=1.30
    Default                     : Yes
    Forced                      : No
    Color range                 : Limited
    Color primaries             : BT.709
    Transfer characteristics    : BT.709
    Matrix coefficients         : BT.709
    DURATION                    : 01:15:50.797000000
    NUMBER_OF_FRAMES            : 109110
    NUMBER_OF_BYTES             : 739179754
    _STATISTICS_WRITING_APP     : mkvmerge v8.6.1 ('Flying') 64bit
    _STATISTICS_WRITING_DATE_UT : 2017-02-01 01:26:11
    _STATISTICS_TAGS            : BPS DURATION NUMBER_OF_FRAMES NUMBER_OF_BYTES

    Audio #1
    ID                          : 2
    Format                      : AC-3
    Format/Info                 : Audio Coding 3
    Mode extension              : CM (complete main)
    Format settings, Endianness : Big
    Codec ID                    : A_AC3
    Duration                    : 1h 15mn
    Bit rate mode               : Constant
    Bit rate                    : 640 Kbps
    Channel(s)                  : 6 channels
    Channel positions           : Front: L C R, Side: L R, LFE
    Sampling rate               : 48.0 KHz
    Compression mode            : Lossy
    Delay relative to video     : -83ms
    Stream size                 : 347 MiB (18%)
    Title                       : Español Latino AC3 5.1 [640 Kbps]
    Language                    : Spanish
    Default                     : Yes
    Forced                      : No

    Audio #2
    ID                          : 3
    Format                      : DTS
    Format/Info                 : Digital Theater Systems
    Mode                        : 16
    Format settings, Endianness : Big
    Codec ID                    : A_DTS
    Duration                    : 1h 15mn
    Bit rate mode               : Constant
    Bit rate                    : 1 509 Kbps
    Channel(s)                  : 6 channels
    Channel positions           : Front: L C R, Side: L R, LFE
    Sampling rate               : 48.0 KHz
    Bit depth                   : 24 bits
    Compression mode            : Lossy
    Delay relative to video     : -83ms
    Stream size                 : 819 MiB (43%)
    Title                       : Inglés DTS 5.1 [1509 Kbps]
    Language                    : English
    Default                     : No
    Forced                      : No

    Text #1
    ID                          : 4
    Format                      : UTF-8
    Codec ID                    : S_TEXT/UTF8
    Codec ID/Info               : UTF-8 Plain Text
    Title                       : Subtítulos Español Latino - Forzados [SRT]
    Language                    : Spanish
    Default                     : No
    Forced                      : Yes

    Text #2
    ID                          : 5
    Format                      : UTF-8
    Codec ID                    : S_TEXT/UTF8
    Codec ID/Info               : UTF-8 Plain Text
    Title                       : Subtítulos Español Latino [SRT]
    Language                    : Spanish
    Default                     : No
    Forced                      : No

    Text #3
    ID                          : 6
    Format                      : PGS
    Codec ID                    : S_HDMV/PGS
    Codec ID/Info               : Picture based subtitle format used on BDs/HD-DVDs
    Title                       : Subtítulos Español Latino - Forzados [PGS]
    Language                    : Spanish
    Default                     : No
    Forced                      : No

    Text #4
    ID                          : 7
    Format                      : PGS
    Codec ID                    : S_HDMV/PGS
    Codec ID/Info               : Picture based subtitle format used on BDs/HD-DVDs
    Title                       : Subtítulos Español Latino [PGS]
    Language                    : Spanish
    Default                     : No
    Forced                      : No

    Menu
    00:00:00.000                : :Chapter 1
    00:12:59.153                : :Chapter 2
    00:22:24.009                : :Chapter 3
    00:33:17.036                : :Chapter 4
    00:42:14.532                : :Chapter 5
    00:54:20.048                : :Chapter 6
    01:04:17.854                : :Chapter 7
    01:12:34.224                : :Chapter 8

  • Peso: 1.84 GB

Sinopsis

Descargar Justice League Dark x265 (2017) 1080p Latino Seres con poderes sobrenaturales se unen para luchar contra los villanos sobrenaturales. Este equipo incluyena seres sobrenaturales John Constantine, Zatanna y Jason conocido Etrigran diablo sangre.

Ficha técnica

Video trailer de la película

Enlaces de descarga

Descargar
Descargar La Liga de la Justicia Oscura (2016) Full 1080p Latino

dpeliculas

Aportes de DPeliculasHDmega la pass es:dpeliculashdmega.org Aportes de CinemaniaHD la pass es:cinemaniahdd.com

Películas relacionadas

  • Pilgrimage (2017) WEB-DL 1080p Latino

    2017
    Pilgrimage (2017) WEB-DL 1080p Latino

    0.0 1 h 36 min 2017

    “Roma ha hablado”, con esa frase unos monjes cristianos deben comenzar la peregrinación hacia Roma...

    Director: Sophie Higel

    Género: Acción

    Actores: Tristan McConnell

  • The Bourne Ultimátum (2007) Full 1080p Latino

    2007
    The Bourne Ultimátum (2007) Full 1080p Latino

    5.0 1 h 55 min 2007

    Jason Bourne sigue investigando quién es y qué hay realmente detrás del programa secreto de la CIA...

    Director: Sue Mahoney

    Género: Acción

    Actores: William H. Burns

  • The Bourne Supremacy (2004) Full 1080p Latino

    2004
    The Bourne Supremacy (2004) Full 1080p Latino

    5.0 1h 48m 2004

    El pasado de Jason Bourne vuelve por él. En la segunda entrega de la saga de tres películas basadas...

    Director: Thorne Mutert

    Género: Acción

    Actores: Yevgeni Sitokhin

Comentarios 1
  • slash - 15 febrero, 2017

    Gracias por la calidad brutal, mas movies de animación de DC.