Advertise here

Juerga de mamis (2017) 1080p Latino

1.143 vistas
1 estrella2 estrellas3 estrellas4 estrellas5 estrellas (Ninguna valoración todavía)
Cargando…

Información de Juerga de mamis (2017) 1080p Latino

Datos de la película

  • Calidad: 1080p
  • Audio: Español Latino AC3 2.0 Capturado - Ingles AC3 5.1 BLURAY
  • Subtitulos: No
  • Resolución: 1920X804
  • Formato: MKV
  • Codec: H.264
  • Encoder: Dpelis
  • Mediainfo: Clic para Mostrar Datos Ver
  • Format                                   : Matroska
    Format version                           : Version 4 / Version 2
    File size                                : 2.31 GiB
    Duration                                 : 1 h 22 min
    Overall bit rate                         : 4 031 kb/s
    Movie name                               : dpeliculashdmega.org
    Encoded date                             : UTC 2017-11-02 22:39:26 / UTC 2017-11-02T21:55:51Z
    Writing application                      : mkvmerge v15.0.0 ('Duel with the Devil') 64-bit
    Writing library                          : libebml v1.3.5 + libmatroska v1.4.5 / Lavf57.7.2

    Video
    ID                                       : 1
    Format                                   : AVC
    Format/Info                              : Advanced Video Codec
    Format profile                           : [email protected]
    Format settings                          : CABAC / 5 Ref Frames
    Format settings, CABAC                   : Yes
    Format settings, RefFrames               : 5 frames
    Codec ID                                 : V_MPEG4/ISO/AVC
    Duration                                 : 1 h 22 min
    Bit rate                                 : 3 500 kb/s
    Width                                    : 1 920 pixels
    Height                                   : 804 pixels
    Display aspect ratio                     : 2.40:1
    Frame rate mode                          : Constant
    Frame rate                               : 23.976 (24000/1001) FPS
    Color space                              : YUV
    Chroma subsampling                       : 4:2:0
    Bit depth                                : 8 bits
    Scan type                                : Progressive
    Bits/(Pixel*Frame)                       : 0.095
    Stream size                              : 1.93 GiB (84%)
    Title                                    : Juerga de mamis (2017) 1080p Latino
    Writing library                          : x264 core 148 r2708 86b7198
    Encoding settings                        : cabac=1 / ref=5 / deblock=1:0:0 / analyse=0x3:0x113 / me=umh / subme=8 / psy=1 / psy_rd=1.00:0.00 / mixed_ref=1 / me_range=16 / chroma_me=1 / trellis=1 / 8x8dct=1 / cqm=0 / deadzone=21,11 / fast_pskip=1 / chroma_qp_offset=-2 / threads=25 / lookahead_threads=4 / sliced_threads=0 / nr=0 / decimate=1 / interlaced=0 / bluray_compat=0 / constrained_intra=0 / bframes=3 / b_pyramid=2 / b_adapt=2 / b_bias=0 / direct=3 / weightb=1 / open_gop=0 / weightp=2 / keyint=240 / keyint_min=24 / scenecut=40 / intra_refresh=0 / rc_lookahead=50 / rc=abr / mbtree=1 / bitrate=3500 / ratetol=1.0 / qcomp=0.60 / qpmin=0 / qpmax=69 / qpstep=4 / vbv_maxrate=62500 / vbv_bufsize=78125 / nal_hrd=none / filler=0 / ip_ratio=1.40 / aq=1:1.00
    Language                                 : English
    Default                                  : Yes
    Forced                                   : No
    Color range                              : Limited
    Color primaries                          : BT.709
    Transfer characteristics                 : BT.709
    Matrix coefficients                      : BT.709
    Statistics Tags Issue                    : mkvmerge v15.0.0 ('Duel with the Devil') 64-bit 2017-11-02 22:39:26 / mkvmerge v15.0.0 ('Duel with the Devil') 64-bit 2017-11-02 22:39:26 / UTC 2017-11-02T21:55:51Z
    FromStats_BitRate                        : 3475564
    FromStats_Duration                       : 01:21:32.054000000
    FromStats_FrameCount                     : 117292
    FromStats_StreamSize                     : 2125331344

    Audio #1
    ID                                       : 2
    Format                                   : AC-3
    Format/Info                              : Audio Coding 3
    Format settings, Endianness              : Big
    Codec ID                                 : A_AC3
    Duration                                 : 1 h 22 min
    Bit rate mode                            : Constant
    Bit rate                                 : 192 kb/s
    Channel(s)                               : 2 channels
    Channel positions                        : Front: L R
    Sampling rate                            : 48.0 kHz
    Frame rate                               : 31.250 FPS (1536 SPF)
    Bit depth                                : 16 bits
    Compression mode                         : Lossy
    Delay relative to video                  : -5 ms
    Stream size                              : 113 MiB (5%)
    Title                                    : AC3
    Language                                 : Spanish
    Service kind                             : Complete Main
    Default                                  : Yes
    Forced                                   : No
    Statistics Tags Issue                    : mkvmerge v15.0.0 ('Duel with the Devil') 64-bit 2017-11-02 22:39:26 / mkvmerge v15.0.0 ('Duel with the Devil') 64-bit 2017-11-02 22:39:26 / UTC 2017-11-02T21:55:51Z
    FromStats_BitRate                        : 192000
    FromStats_Duration                       : 01:22:01.472000000
    FromStats_FrameCount                     : 153796
    FromStats_StreamSize                     : 118115328

    Audio #2
    ID                                       : 3
    Format                                   : AC-3
    Format/Info                              : Audio Coding 3
    Format settings, Endianness              : Big
    Codec ID                                 : A_AC3
    Duration                                 : 1 h 22 min
    Bit rate mode                            : Constant
    Bit rate                                 : 384 kb/s
    Channel(s)                               : 6 channels
    Channel positions                        : Front: L C R, Side: L R, LFE
    Sampling rate                            : 48.0 kHz
    Frame rate                               : 31.250 FPS (1536 SPF)
    Bit depth                                : 16 bits
    Compression mode                         : Lossy
    Delay relative to video                  : -5 ms
    Stream size                              : 225 MiB (10%)
    Title                                    : Ingles-AC3
    Language                                 : English
    Service kind                             : Complete Main
    Default                                  : No
    Forced                                   : No
    Statistics Tags Issue                    : mkvmerge v15.0.0 ('Duel with the Devil') 64-bit 2017-11-02 22:39:26 / mkvmerge v15.0.0 ('Duel with the Devil') 64-bit 2017-11-02 22:39:26 / UTC 2017-11-02T21:55:51Z
    FromStats_BitRate                        : 384000
    FromStats_Duration                       : 01:21:32.032000000
    FromStats_FrameCount                     : 152876
    FromStats_StreamSize                     : 234817536

    Menu
    00:00:00.000                             : :Chapter 1
    00:04:15.881                             : :Chapter 2
    00:09:29.277                             : :Chapter 3
    00:14:51.766                             : :Chapter 4
    00:21:43.677                             : :Chapter 5
    00:26:48.816                             : :Chapter 6
    00:30:58.440                             : :Chapter 7
    00:35:58.823                             : :Chapter 8
    00:41:06.089                             : :Chapter 9
    00:46:15.815                             : :Chapter 10
    00:52:32.816                             : :Chapter 11
    00:58:00.978                             : :Chapter 12
    01:03:33.643                             : :Chapter 13
    01:10:19.924                             : :Chapter 14
    01:15:29.233                             : :Chapter 15
    01:18:08.809                             : :Chapter 16

  • Peso: 2.31 GiB

Sinopsis

Cuatro madres se juntan para cenar y pasarlo bien. Cuando la noche da un giro inesperado, estas cuatro mujeres descubrirán que tienen más cosas en común de lo que pensaban.

Ficha técnica

  • Titulo original: Fun Mom Dinner
  • Fecha de lanzamiento: 04-08-2017
  • Director: Alethea Jones
  • Género: Comedia
  • Puntuación: 0.0 0 votos
  • Duración:
    1 h 22 min

Video trailer de la película

Enlaces de descarga

Descargar Juerga de mamis (2017) 1080p Latino
Descargar

dpeliculas

Aportes de DPeliculasHDmega la pass es:dpeliculashdmega.org Aportes de CinemaniaHD la pass es:cinemaniahdd.com
Guardado en : Comedia

Películas relacionadas

  • Crash Pad (2017) WEB-DL 1080p Latino

    2017
    Crash Pad (2017) WEB-DL 1080p Latino

    0.0 1 h 33 min 2017

    Un romántico sin esperanza que cree que ha encontrado el amor verdadero con una mujer mayor, solo para...

    Director: Kevin Tent

    Género: Comedia

    Actores: Vladimir Ruzich

  • Toy Story 3 (2010) Full 1080p Latino

    2010
    Toy Story 3 (2010) Full 1080p Latino

    0.0 1 h 43 min 2010

    Sabiendo que su dueño Andy, que ya no es un niño, se prepara para ir a la universidad, el vaquero Woody,...

    Director: Mark Sanford

    Género: Animación

    Actores: Whoopi Goldberg

  • Toy Story (1995) Full 1080p Latino

    1995
    Toy Story (1995) Full 1080p Latino

    0.0 1 h 21 min 1995

    Los juguetes de Andy, un niño de 6 años, temen que haya llegado su hora y que un nuevo regalo de cumpleaños...

    Director: Roman Figun

    Género: Animación

    Actores: Wallace Shawn

Comentarios 0