Jolly LLB 2 (2017) WEBDL 1080p Latino

456 vistas
1 estrella2 estrellas3 estrellas4 estrellas5 estrellas (2 votos, promedio: 1,50 de 5)
Cargando…

Información de Jolly LLB 2 (2017) WEBDL 1080p Latino

Datos de la película

  • Calidad: WEBDL
  • Audio: Se especifica abajo de la Sinopsis
  • Subtitulos: Español Latino SRT
  • Resolución: 1908x806p
  • Formato: MKV
  • Codec: H.264
  • Encoder: Dpelis
  • Mediainfo: Ver Ver
  • Jolly LLB 2 (2017) WEBDL 1080p Latino.mkv
    Format                      : Matroska
    Format version              : Version 4 / Version 2
    File size                   : 4.94 GiB
    Duration                    : 2 h 16 min
    Overall bit rate            : 5 196 kb/s
    Movie name                  : DPeliculasHDMega.ORG
    Encoded date                : UTC 2017-08-24 12:16:10
    Writing application         : mkvmerge v10.0.0 ('To Drown In You') 64bit
    Writing library             : libebml v1.3.4 + libmatroska v1.4.5

    Video
    ID                          : 1
    Format                      : AVC
    Format/Info                 : Advanced Video Codec
    Format profile              : [email protected]
    Format settings, CABAC      : Yes
    Format settings, ReFrames   : 5 frames
    Codec ID                    : V_MPEG4/ISO/AVC
    Duration                    : 2 h 16 min
    Bit rate                    : 4 553 kb/s
    Width                       : 1 908 pixels
    Height                      : 806 pixels
    Display aspect ratio        : 2.35:1
    Frame rate mode             : Constant
    Frame rate                  : 23.976 (23976/1000) FPS
    Color space                 : YUV
    Chroma subsampling          : 4:2:0
    Bit depth                   : 8 bits
    Scan type                   : Progressive
    Bits/(Pixel*Frame)          : 0.123
    Stream size                 : 4.33 GiB (88%)
    Language                    : English
    Default                     : Yes
    Forced                      : No
    Color range                 : Limited
    Color primaries             : BT.709
    Transfer characteristics    : BT.709
    Matrix coefficients         : BT.709

    Audio #1
    ID                          : 2
    Format                      : AC-3
    Format/Info                 : Audio Coding 3
    Format settings, Endianness : Big
    Codec ID                    : A_AC3
    Duration                    : 2 h 16 min
    Bit rate mode               : Constant
    Bit rate                    : 256 kb/s
    Channel(s)                  : 2 channels
    Channel positions           : Front: L R
    Sampling rate               : 48.0 kHz
    Frame rate                  : 31.250 FPS (1536 spf)
    Bit depth                   : 16 bits
    Compression mode            : Lossy
    Stream size                 : 249 MiB (5%)
    Language                    : Spanish
    Service kind                : Complete Main
    Default                     : Yes
    Forced                      : No

    Audio #2
    ID                          : 3
    Format                      : AC-3
    Format/Info                 : Audio Coding 3
    Format settings, Endianness : Big
    Codec ID                    : A_AC3
    Duration                    : 2 h 16 min
    Bit rate mode               : Constant
    Bit rate                    : 384 kb/s
    Channel(s)                  : 6 channels
    Channel positions           : Front: L C R, Side: L R, LFE
    Sampling rate               : 48.0 kHz
    Frame rate                  : 31.250 FPS (1536 spf)
    Bit depth                   : 16 bits
    Compression mode            : Lossy
    Stream size                 : 374 MiB (7%)
    Language                    : Hindi
    Service kind                : Complete Main
    Default                     : No
    Forced                      : No

    Text
    ID                          : 4
    Format                      : UTF-8
    Codec ID                    : S_TEXT/UTF8
    Codec ID/Info               : UTF-8 Plain Text
    Duration                    : 2 h 15 min
    Bit rate                    : 73 b/s
    Count of elements           : 2037
    Stream size                 : 73.5 KiB (0%)
    Language                    : Spanish
    Default                     : Yes
    Forced                      : No

    Menu
    00:00:00.000                : en:Capítulo 1
    00:20:56.715                : en:Capítulo 2
    00:40:36.394                : en:Capítulo 3
    01:00:19.577                : en:Capítulo 4
    01:20:13.395                : en:Capítulo 5
    01:40:57.222                : en:Capítulo 6
    02:00:18.299                : en:Capítulo 7

  • Peso: 4.94 GB

Sinopsis

Jagdishwar Mishra aka Jolly, un abogado luchador que se traslada de Kanpur a la ciudad de Nawabs para perseguir su sueño de convertirse en un gran abogado.

 

Español Latino AC3 2.0 – India AC3 5.1

Ficha técnica

  • Titulo original: जॉली एलएलबी 2
  • Fecha de lanzamiento: 09-02-2017 (India)
  • Director: Subhash Kapoor
  • Género: Comedia, Crimen
  • Puntuación: 1.5 2 votos
  • Duración:
    0h 0m

Imágenes, Capturas de la película

Video trailer de la película

Enlaces de descarga

Descargar Jolly LLB 2 (2017) WEBDL 1080p Latino
Descargar

dpeliculas

Aportes de DPeliculasHDmega la pass es:dpeliculashdmega.org Aportes de CinemaniaHD la pass es:cinemaniahdd.com
Guardado en : Comedia , Crimen

PelícuDelas relacionadas

  • Enredados otra vez (2017) WEBDL 1080p Latino

    2017
    Enredados otra vez (2017) WEBDL 1080p Latino

    5.0 0h 55m 2017

    Descargar Pelicula Tangled: Before Ever After Calidad WEBDL Latino¡Mientras Rapunzel se prepara para...

    Director: Tom Caulfield

    Género: Animación

    Actores: Zachary Levi

  • El silencio de los corderos (1991) Full 1080p Latino

    1991
    El silencio de los corderos (1991) Full 1080p Latino

    5.0 1h 58m 1991

    El FBI busca a "Buffalo Bill", un asesino en serie que mata a sus víctimas, todas adolescentes, después...

    Director: Ronald M. Bozman

    Género: Crimen

    Actores: Tracey Walter

  • Me case con un boludo (2016) 1080p Latino

    2016
    Me case con un boludo (2016) 1080p Latino

    4.0 1h 50m 2016

    Florencia, una actriz en ascenso pero que recién comienza su carrera en cine, se termina enamorando...

    Director: Juan Taratuto

    Género: Comedia

    Actores: Valeria Bertuccelli

Comentarios 0