Advertise here

Jennifer’s Body (2009) UNRATED Full 1080p Latino

1.257 vistas
1 estrella2 estrellas3 estrellas4 estrellas5 estrellas (Ninguna valoración todavía)
Cargando…

Información de Jennifer’s Body (2009) UNRATED Full 1080p Latino

Datos de la película

  • Calidad: Full 1080p
  • Audio: Español Latino AC3 5.1 BLURAY - Ingles DTS 5.1 BLURAY
  • Subtitulos: Español PGS - Ingles PGS
  • Resolución: 1920X1080
  • Formato: MKV
  • Codec: H.264
  • Encoder: Dpelis
  • Mediainfo: Clic para Mostrar Datos Ver
  • Format                                   : Matroska
    Format version                           : Version 4 / Version 2
    File size                                : 8.00 GiB
    Duration                                 : 1 h 47 min
    Overall bit rate                         : 10.7 Mb/s
    Movie name                               : dpeliculashdmega.org
    Encoded date                             : UTC 2017-11-14 21:15:30 / UTC 2017-11-12T06:46:13Z
    Writing application                      : mkvmerge v15.0.0 ('Duel with the Devil') 64-bit
    Writing library                          : libebml v1.3.5 + libmatroska v1.4.5 / Lavf57.7.2

    Video
    ID                                       : 1
    Format                                   : AVC
    Format/Info                              : Advanced Video Codec
    Format profile                           : [email protected]
    Format settings                          : CABAC / 4 Ref Frames
    Format settings, CABAC                   : Yes
    Format settings, RefFrames               : 4 frames
    Codec ID                                 : V_MPEG4/ISO/AVC
    Duration                                 : 1 h 47 min
    Bit rate                                 : 8 487 kb/s
    Width                                    : 1 920 pixels
    Height                                   : 1 080 pixels
    Display aspect ratio                     : 16:9
    Frame rate mode                          : Constant
    Frame rate                               : 23.976 (24000/1001) FPS
    Color space                              : YUV
    Chroma subsampling                       : 4:2:0
    Bit depth                                : 8 bits
    Scan type                                : Progressive
    Bits/(Pixel*Frame)                       : 0.171
    Stream size                              : 6.37 GiB (80%)
    Title                                    : Jennifer's Body (2009) UNRATED Full 1080p Latino
    Writing library                          : x264 core 148 r2708 86b7198
    Encoding settings                        : cabac=1 / ref=4 / deblock=1:0:0 / analyse=0x3:0x133 / me=esa / subme=10 / psy=1 / psy_rd=1.00:0.00 / mixed_ref=1 / me_range=24 / chroma_me=1 / trellis=2 / 8x8dct=1 / cqm=0 / deadzone=21,11 / fast_pskip=1 / chroma_qp_offset=-2 / threads=34 / lookahead_threads=5 / sliced_threads=0 / nr=0 / decimate=1 / interlaced=0 / bluray_compat=0 / constrained_intra=0 / bframes=8 / b_pyramid=2 / b_adapt=2 / b_bias=0 / direct=3 / weightb=1 / open_gop=0 / weightp=2 / keyint=240 / keyint_min=24 / scenecut=40 / intra_refresh=0 / rc_lookahead=60 / rc=crf / mbtree=1 / crf=20.0 / qcomp=0.60 / qpmin=0 / qpmax=69 / qpstep=4 / vbv_maxrate=62500 / vbv_bufsize=78125 / crf_max=0.0 / nal_hrd=none / filler=0 / ip_ratio=1.40 / aq=1:1.00
    Language                                 : English
    Default                                  : Yes
    Forced                                   : No
    Color range                              : Limited
    Color primaries                          : BT.709
    Transfer characteristics                 : BT.709
    Matrix coefficients                      : BT.709
    Statistics Tags Issue                    : mkvmerge v15.0.0 ('Duel with the Devil') 64-bit 2017-11-14 21:15:30 / mkvmerge v15.0.0 ('Duel with the Devil') 64-bit 2017-11-14 21:15:30 / UTC 2017-11-12T06:46:13Z
    FromStats_BitRate                        : 8672826
    FromStats_Duration                       : 01:47:29.527000000
    FromStats_FrameCount                     : 154634
    FromStats_StreamSize                     : 6991953223

    Audio #1
    ID                                       : 2
    Format                                   : AC-3
    Format/Info                              : Audio Coding 3
    Format settings, Endianness              : Big
    Codec ID                                 : A_AC3
    Duration                                 : 1 h 47 min
    Bit rate mode                            : Constant
    Bit rate                                 : 448 kb/s
    Channel(s)                               : 6 channels
    Channel positions                        : Front: L C R, Side: L R, LFE
    Sampling rate                            : 48.0 kHz
    Frame rate                               : 31.250 FPS (1536 SPF)
    Bit depth                                : 16 bits
    Compression mode                         : Lossy
    Stream size                              : 344 MiB (4%)
    Title                                    : Latino-AC3
    Language                                 : Spanish
    Service kind                             : Complete Main
    Default                                  : Yes
    Forced                                   : No
    Statistics Tags Issue                    : mkvmerge v15.0.0 ('Duel with the Devil') 64-bit 2017-11-14 21:15:30 / mkvmerge v15.0.0 ('Duel with the Devil') 64-bit 2017-11-14 21:15:30 / UTC 2017-11-12T06:46:13Z
    FromStats_BitRate                        : 448000
    FromStats_Duration                       : 01:47:29.536000000
    FromStats_FrameCount                     : 201548
    FromStats_StreamSize                     : 361174016

    Audio #2
    ID                                       : 3
    Format                                   : DTS
    Format/Info                              : Digital Theater Systems
    Mode                                     : 16
    Format settings, Endianness              : Big
    Codec ID                                 : A_DTS
    Duration                                 : 1 h 47 min
    Bit rate mode                            : Constant
    Bit rate                                 : 1 509 kb/s
    Channel(s)                               : 6 channels
    Channel positions                        : Front: L C R, Side: L R, LFE
    Sampling rate                            : 48.0 kHz
    Frame rate                               : 93.750 FPS (512 SPF)
    Bit depth                                : 24 bits
    Compression mode                         : Lossy
    Stream size                              : 1.13 GiB (14%)
    Title                                    : Ingles-AC3
    Language                                 : English
    Default                                  : No
    Forced                                   : No
    Statistics Tags Issue                    : mkvmerge v15.0.0 ('Duel with the Devil') 64-bit 2017-11-14 21:15:30 / mkvmerge v15.0.0 ('Duel with the Devil') 64-bit 2017-11-14 21:15:30 / UTC 2017-11-12T06:46:13Z
    FromStats_BitRate                        : 1508999
    FromStats_Duration                       : 01:47:29.526000000
    FromStats_FrameCount                     : 604643
    FromStats_StreamSize                     : 1216541716

    Text #1
    ID                                       : 4
    Format                                   : PGS
    Muxing mode                              : zlib
    Codec ID                                 : S_HDMV/PGS
    Codec ID/Info                            : Picture based subtitle format used on BDs/HD-DVDs
    Language                                 : English
    Default                                  : No
    Forced                                   : No
    Statistics Tags Issue                    : mkvmerge v15.0.0 ('Duel with the Devil') 64-bit 2017-11-14 21:15:30 / mkvmerge v15.0.0 ('Duel with the Devil') 64-bit 2017-11-14 21:15:30 / UTC 2017-11-12T06:46:13Z
    FromStats_BitRate                        : 50633
    FromStats_Duration                       : 01:47:00.122000000
    FromStats_FrameCount                     : 2837
    FromStats_StreamSize                     : 40633890

    Text #2
    ID                                       : 5
    Format                                   : PGS
    Muxing mode                              : zlib
    Codec ID                                 : S_HDMV/PGS
    Codec ID/Info                            : Picture based subtitle format used on BDs/HD-DVDs
    Language                                 : Spanish
    Default                                  : No
    Forced                                   : No
    Statistics Tags Issue                    : mkvmerge v15.0.0 ('Duel with the Devil') 64-bit 2017-11-14 21:15:30 / mkvmerge v15.0.0 ('Duel with the Devil') 64-bit 2017-11-14 21:15:30 / UTC 2017-11-12T06:46:13Z
    FromStats_BitRate                        : 39218
    FromStats_Duration                       : 01:46:44.690000000
    FromStats_FrameCount                     : 2195
    FromStats_StreamSize                     : 31397508

    Menu
    00:00:00.000                             : :Hell
    00:05:23.448                             : :Devil's Kettle
    00:09:56.262                             : :Melody Lane
    00:14:58.022                             : :On Fore
    00:20:05.538                             : :Someone's at the Door
    00:23:23.319                             : :Are You Scared?
    00:25:53.343                             : :A Dark Day
    00:31:20.253                             : :What Craig Would Have Wanted
    00:34:53.592                             : :Day Terrors
    00:37:26.953                             : :I Am God
    00:41:07.173                             : :Unity and Healing
    00:44:25.204                             : :Really Cool
    00:47:15.166                             : :Date Night
    00:51:32.339                             : :Mommy and Daddy
    00:59:09.671                             : :Agents of Satan
    01:06:43.082                             : :So Hungry
    01:10:43.656                             : :Demonic Transference
    01:13:10.970                             : :Getting Ready to Dance
    01:19:22.883                             : :Welcome to the Spring Formal
    01:25:54.316                             : :Snowflake Queen
    01:30:31.968                             : :I Love You Too
    01:33:23.681                             : :NBFF
    01:38:18.142                             : :The Kicker
    01:41:09.981                             : :The Last Show

  • Peso: 8.00 GiB

Sinopsis

La guionista de “Juno” y la protagonista femenina de “Transformers” se juntan en un thriller en el que una sexy cheerleader poseída comienza a asesinar a sus compañeros de clase. Jennifer Check (Megan Fox) es la nueva estrella de las cheerleaders de un instituto de Minnesota, en una zona rural y aparentemente tranquila. Pero Jennifer será poseída por unas fuerzas extrañas y malévolas que la impulsarán a asesinar a todos sus compañeros de clase, principalmente a todos los chicos que quieren ligar con ella…

Ficha técnica

Video trailer de la película

Enlaces de descarga

Descargar Jennifer’s Body (2009) UNRATED Full 1080p Latino
Descargar

dpeliculas

Aportes de DPeliculasHDmega la pass es:dpeliculashdmega.org Aportes de CinemaniaHD la pass es:cinemaniahdd.com
Guardado en : Comedia , FULL 1080p Pesadas , Terror

Películas relacionadas

  • Toy Story 3 (2010) Full 1080p Latino

    2010
    Toy Story 3 (2010) Full 1080p Latino

    0.0 1 h 43 min 2010

    Sabiendo que su dueño Andy, que ya no es un niño, se prepara para ir a la universidad, el vaquero Woody,...

    Director: Mark Sanford

    Género: Animación

    Actores: Whoopi Goldberg

  • Toy Story (1995) Full 1080p Latino

    1995
    Toy Story (1995) Full 1080p Latino

    0.0 1 h 21 min 1995

    Los juguetes de Andy, un niño de 6 años, temen que haya llegado su hora y que un nuevo regalo de cumpleaños...

    Director: Roman Figun

    Género: Animación

    Actores: Wallace Shawn

  • Avatar (2009) EXTENDED Full 1080p Latino

    2009
    Avatar (2009) EXTENDED Full 1080p Latino

    0.0 2 h 58 min 2009

    Jake Sully, un ex-marine confinado a una silla de ruedas, es reclutado para viajar al planeta Pandora,...

    Director: James Cameron

    Género: Acción

    Actores: Zoe Saldana

Comentarios 1
  • leonidas2016 - 14 noviembre, 2017

    exelente gracias