Jackie & Ryan (2014) Webdl 1080p Latino

680 vistas
1 estrella2 estrellas3 estrellas4 estrellas5 estrellas (Ninguna valoración todavía)
Cargando…

Información de Jackie & Ryan (2014) Webdl 1080p Latino

Datos de la película

  • Calidad: WEBDL
  • Audio: Español Latino AC3 2.0 iTunes - Ingles AC3 5.1 iTunes
  • Subtitulos: Español Latino SRT - Ingles SRT
  • Resolución: 1916x802p
  • Formato: MKV
  • Codec: H.264
  • Encoder: Dpelis
  • Mediainfo: Ver Ver
  • Jackie & Ryan (2014) WebDL 1080p Latino.mkv
    Format                      : Matroska
    Format version              : Version 4 / Version 2
    File size                   : 3.16 GiB
    Duration                    : 1 h 30 min
    Overall bit rate            : 4 994 kb/s
    Movie name                  : DPeliculasHDMega.ORG
    Encoded date                : UTC 2017-07-26 03:49:54
    Writing application         : mkvmerge v10.0.0 ('To Drown In You') 64bit
    Writing library             : libebml v1.3.4 + libmatroska v1.4.5

    Video
    ID                          : 1
    Format                      : AVC
    Format/Info                 : Advanced Video Codec
    Format profile              : [email protected]
    Format settings, CABAC      : Yes
    Format settings, ReFrames   : 5 frames
    Codec ID                    : V_MPEG4/ISO/AVC
    Duration                    : 1 h 30 min
    Bit rate                    : 4 427 kb/s
    Width                       : 1 916 pixels
    Height                      : 802 pixels
    Display aspect ratio        : 2.40:1
    Frame rate mode             : Constant
    Frame rate                  : 23.976 FPS
    Color space                 : YUV
    Chroma subsampling          : 4:2:0
    Bit depth                   : 8 bits
    Scan type                   : Progressive
    Bits/(Pixel*Frame)          : 0.120
    Stream size                 : 2.80 GiB (89%)
    Language                    : English
    Default                     : Yes
    Forced                      : No
    Color range                 : Limited
    Color primaries             : BT.709
    Transfer characteristics    : BT.709
    Matrix coefficients         : BT.709

    Audio #1
    ID                          : 2
    Format                      : AC-3
    Format/Info                 : Audio Coding 3
    Format settings, Endianness : Big
    Codec ID                    : A_AC3
    Duration                    : 1 h 25 min
    Bit rate mode               : Constant
    Bit rate                    : 192 kb/s
    Channel(s)                  : 2 channels
    Channel positions           : Front: L R
    Sampling rate               : 48.0 kHz
    Frame rate                  : 31.250 FPS (1536 spf)
    Bit depth                   : 16 bits
    Compression mode            : Lossy
    Delay relative to video     : 1 s 190 ms
    Stream size                 : 117 MiB (4%)
    Language                    : Spanish
    Service kind                : Complete Main
    Default                     : Yes
    Forced                      : No

    Audio #2
    ID                          : 3
    Format                      : AC-3
    Format/Info                 : Audio Coding 3
    Format settings, Endianness : Big
    Codec ID                    : A_AC3
    Duration                    : 1 h 30 min
    Bit rate mode               : Constant
    Bit rate                    : 384 kb/s
    Channel(s)                  : 6 channels
    Channel positions           : Front: L C R, Side: L R, LFE
    Sampling rate               : 48.0 kHz
    Frame rate                  : 31.250 FPS (1536 spf)
    Bit depth                   : 16 bits
    Compression mode            : Lossy
    Stream size                 : 249 MiB (8%)
    Language                    : English
    Service kind                : Complete Main
    Default                     : No
    Forced                      : No

    Text #1
    ID                          : 4
    Format                      : UTF-8
    Codec ID                    : S_TEXT/UTF8
    Codec ID/Info               : UTF-8 Plain Text
    Duration                    : 1 h 21 min
    Bit rate                    : 57 b/s
    Count of elements           : 844
    Stream size                 : 33.9 KiB (0%)
    Language                    : Spanish
    Default                     : Yes
    Forced                      : No

    Text #2
    ID                          : 5
    Format                      : UTF-8
    Codec ID                    : S_TEXT/UTF8
    Codec ID/Info               : UTF-8 Plain Text
    Duration                    : 1 h 21 min
    Bit rate                    : 43 b/s
    Count of elements           : 743
    Stream size                 : 25.6 KiB (0%)
    Language                    : English
    Default                     : No
    Forced                      : No

    Menu
    00:00:00.000                : en:Chapter 1
    00:10:15.532                : en:Chapter 2
    00:19:53.483                : en:Chapter 3
    00:30:46.886                : en:Chapter 4
    00:40:42.356                : en:Chapter 5
    00:50:14.260                : en:Chapter 6
    01:00:20.698                : en:Chapter 7
    01:09:41.633                : en:Chapter 8
    01:18:40.712                : en:Chapter 9

  • Peso: 3.16 GB

Sinopsis

Descargar Jackie & Ryan hd latino. Dos personas luchan por superar circunstancias complicadas, pero que encuentran una conexión que los identifica: la música y el amor. Ryan canta música country en las calles, temeroso de atreverse a componer sus propios temas. Jackie es una mujer que defiende la custodia de su hija. Un leve accidente los une y los va llevando a una relación más profunda, siempre con la parte musical como fondo de este nuevo romance.

Ficha técnica

  • Titulo original: Jackie & Ryan
  • Fecha de lanzamiento: 01-09-2014 (United States of America)
  • Director: Ami Canaan Mann
  • Género: Drama
  • Puntuación: 0.0 0 votos
  • Duración:
    1h 30m

Imágenes, Capturas de la película

Video trailer de la película

Enlaces de descarga

Descargar Jackie & Ryan (2014) Webdl 1080p Latino
Descargar

dpeliculas

Aportes de DPeliculasHDmega la pass es:dpeliculashdmega.org Aportes de CinemaniaHD la pass es:cinemaniahdd.com
Guardado en : Drama

PelícuDelas relacionadas

  • La vida de Pi (2012) 2160p 4K UHD Latino-Ingles

    2012
    La vida de Pi (2012) 2160p 4K UHD Latino-Ingles

    0.0 2h 7m 2012

    Descargar gratis La vida de Pi (2012) 2160p 4K UHD Latino-Ingles.  Pi Patel es un muchacho cuyo padre...

    Director: Ang Lee

    Género: 4K HDR

    Actores: Wang Bo-Chieh

  • Arrow (2017) Temporada 6 WEBDL 1080p Subtitulada

    2012
    Arrow (2017) Temporada 6 WEBDL 1080p Subtitulada

    0.0 0h 42m 2012

    Con el futuro del equipo pendiendo de un hilo, Arrow le dio una nueva definición a la frase “explotar...

    Director: Marc Guggenheim

    Género: Acción

    Actores: Willa Holland

  • La guerra del planeta de los simios (2017) 1080p Latino

    2017
    La guerra del planeta de los simios (2017) 1080p Latino

    5.0 2h 20m 2017

    En War for the Planet of the Apes, el tercer capítulo de la exitosa franquicia aclamada por la crítica,...

    Director: Matt Reeves

    Género: Ciencia ficción

    Actores: Woody Harrelson

  • En este rincón del mundo (2016) 1080p Latino

    2016
    En este rincón del mundo (2016) 1080p Latino

    0.0 2h 10m 2016

    La historia narra la vida de una familia residente en la ciudad de Kure (Hiroshima) durante la II Guerra...

    Director: Sunao Katabuchi

    Género: Animación

    Actores: Yoshimasa Hosoya

Comentarios 2
  • seba - 26 julio, 2017

    cuándo la subiran en caratula gris amigos??

    • dpelis

      Administrador
      - 27 julio, 2017

      x el momento en los tracker el bluray esta muerto. solo se obtuvo webdl itunes