Jack Reacher: Nunca vuelvas atrás (2016) Full 1080p Latino

1.545 vistas
1 estrella2 estrellas3 estrellas4 estrellas5 estrellas (1 votos, promedio: 5,00 de 5)
Cargando…

Información de Jack Reacher: Nunca vuelvas atrás (2016) Full 1080p Latino

jack reacher 2016 hevc x265 latino

Datos de la película

  • Calidad: Full 1080p
  • Audio: Español Latino AC3 5.1 BLURAY - Ingles AC3 5.1 BLURAY
  • Subtitulos: Español Latino PGS - Ingles PGS
  • Resolución: 1920x1080p
  • Formato: MKV
  • Codec: H.265
  • Encoder: SebastianHDx
  • Mediainfo: Ver Ver
  • Jack Reacher Sin Regreso (2016) 1080p BluRay x265 HEVC Dual Latino.mkv
    Format                      : Matroska
    Format version              : Version 4 / Version 2
    File size                   : 3.73 GiB
    Duration                    : 1h 58mn
    Overall bit rate            : 4 525 Kbps
    Encoded date                : UTC 2017-01-25 02:15:01
    Writing application         : mkvmerge v8.6.1 ('Flying') 64bit
    Writing library             : libebml v1.3.3 + libmatroska v1.4.4
    DURATION                    : 01:52:13.978000000
    NUMBER_OF_FRAMES            : 2548
    NUMBER_OF_BYTES             : 24863372
    _STATISTICS_WRITING_APP     : mkvmerge v8.6.1 ('Flying') 64bit
    _STATISTICS_WRITING_DATE_UT : 2017-01-25 02:15:01
    _STATISTICS_TAGS            : BPS DURATION NUMBER_OF_FRAMES NUMBER_OF_BYTES

    Video
    ID                          : 1
    Format                      : HEVC
    Format/Info                 : High Efficiency Video Coding
    Format profile              : [email protected]@Main
    Codec ID                    : V_MPEGH/ISO/HEVC
    Duration                    : 1h 58mn
    Bit rate                    : 3 155 Kbps
    Width                       : 1 920 pixels
    Height                      : 1 080 pixels
    Display aspect ratio        : 16:9
    Frame rate mode             : Constant
    Frame rate                  : 23.976 fps
    Color space                 : YUV
    Chroma subsampling          : 4:2:0
    Bit depth                   : 8 bits
    Bits/(Pixel*Frame)          : 0.063
    Stream size                 : 2.60 GiB (70%)
    Writing library             : x265 1.9:[Windows][GCC 4.9.0][64 bit] 8bit
    Encoding settings           : wpp / ctu=64 / min-cu-size=8 / max-tu-size=32 / tu-intra-depth=1 / tu-inter-depth=1 / me=3 / subme=3 / merange=57 / rect / no-amp / max-merge=3 / temporal-mvp / no-early-skip / rdpenalty=0 / no-tskip / no-tskip-fast / strong-intra-smoothing / no-lossless / no-cu-lossless / no-constrained-intra / no-fast-intra / open-gop / no-temporal-layers / interlace=0 / keyint=240 / min-keyint=24 / scenecut=40 / rc-lookahead=25 / lookahead-slices=4 / bframes=4 / bframe-bias=0 / b-adapt=2 / ref=4 / limit-refs=3 / limit-modes / weightp / no-weightb / aq-mode=1 / qg-size=32 / aq-strength=1.00 / cbqpoffs=0 / crqpoffs=0 / rd=4 / psy-rd=2.00 / rdoq-level=2 / psy-rdoq=1.00 / signhide / deblock / sao / no-sao-non-deblock / b-pyramid / cutree / no-intra-refresh / rc=crf / crf=20.0 / qcomp=0.60 / qpmin=0 / qpmax=51 / qpstep=4 / ipratio=1.40 / pbratio=1.30
    Default                     : Yes
    Forced                      : No
    Color range                 : Limited
    Color primaries             : BT.709
    Transfer characteristics    : BT.709
    Matrix coefficients         : BT.709
    DURATION                    : 01:58:08.957000000
    NUMBER_OF_FRAMES            : 169964
    NUMBER_OF_BYTES             : 2848808559
    _STATISTICS_WRITING_APP     : mkvmerge v8.6.1 ('Flying') 64bit
    _STATISTICS_WRITING_DATE_UT : 2017-01-25 02:15:01
    _STATISTICS_TAGS            : BPS DURATION NUMBER_OF_FRAMES NUMBER_OF_BYTES

    Audio #1
    ID                          : 2
    Format                      : AC-3
    Format/Info                 : Audio Coding 3
    Mode extension              : CM (complete main)
    Format settings, Endianness : Big
    Codec ID                    : A_AC3
    Duration                    : 1h 58mn
    Bit rate mode               : Constant
    Bit rate                    : 640 Kbps
    Channel(s)                  : 6 channels
    Channel positions           : Front: L C R, Side: L R, LFE
    Sampling rate               : 48.0 KHz
    Compression mode            : Lossy
    Delay relative to video     : -83ms
    Stream size                 : 541 MiB (14%)
    Title                       : Español Latino AC3 5.1 [640 Kbps]
    Language                    : Spanish
    Default                     : Yes
    Forced                      : No

    Audio #2
    ID                          : 3
    Format                      : AC-3
    Format/Info                 : Audio Coding 3
    Mode extension              : CM (complete main)
    Format settings, Endianness : Big
    Codec ID                    : A_AC3
    Duration                    : 1h 58mn
    Bit rate mode               : Constant
    Bit rate                    : 640 Kbps
    Channel(s)                  : 6 channels
    Channel positions           : Front: L C R, Side: L R, LFE
    Sampling rate               : 48.0 KHz
    Compression mode            : Lossy
    Delay relative to video     : -83ms
    Stream size                 : 541 MiB (14%)
    Title                       : Inglés AC3 5.1 [640 Kbps]
    Language                    : English
    Default                     : No
    Forced                      : No

    Text #1
    ID                          : 4
    Format                      : UTF-8
    Codec ID                    : S_TEXT/UTF8
    Codec ID/Info               : UTF-8 Plain Text
    Title                       : Subtítulos Español Latino [SRT]
    Language                    : Spanish
    Default                     : No
    Forced                      : No

    Text #2
    ID                          : 5
    Format                      : UTF-8
    Codec ID                    : S_TEXT/UTF8
    Codec ID/Info               : UTF-8 Plain Text
    Title                       : Subtítulos Español Latino - Forzados [SRT]
    Language                    : Spanish
    Default                     : No
    Forced                      : Yes

    Text #3
    ID                          : 6
    Format                      : PGS
    Codec ID                    : S_HDMV/PGS
    Codec ID/Info               : Picture based subtitle format used on BDs/HD-DVDs
    Title                       : Subtítulos Español Latino [PGS]
    Language                    : Spanish
    Default                     : No
    Forced                      : No

    Menu
    00:00:00.000                : :Chapter 1
    00:07:00.712                : :Chapter 2
    00:15:19.960                : :Chapter 3
    00:20:33.941                : :Chapter 4
    00:29:04.659                : :Chapter 5
    00:34:35.823                : :Chapter 6
    00:42:40.224                : :Chapter 7
    00:49:28.090                : :Chapter 8
    00:58:44.646                : :Chapter 9
    01:03:10.244                : :Chapter 10
    01:09:35.838                : :Chapter 11
    01:15:05.417                : :Chapter 12
    01:21:59.748                : :Chapter 13
    01:27:07.305                : :Chapter 14
    01:34:14.148                : :Chapter 15
    01:46:44.064                : :Chapter 16
    01:53:30.929                : :Chapter 17

  • Peso: 3.73 GB

Sinopsis

Descargar Jack Reacher sin retorno x265 hevc (2016) 1080p Latino Alcalde Susan Turner, jefe de la unidad militar ex Reacher es falsamente acusado de traición. Jack Reacher es liberado de prisión y descubrir la verdad detrás de un complot del gobierno para poner en claro sus nombres y salvar sus vidas. Durante el escape Reacher descubre un secreto de su pasado que podría cambiar su vida para siempre. Después de “Jack Reacher” (2012).

Ficha técnica

Imágenes, Capturas de la película

Video trailer de la película

Enlaces de descarga

Descargar
Descargar Jack Reacher: Nunca vuelvas atrás (2016) Full 1080p Latino

dpeliculas

Aportes de DPeliculasHDmega la pass es:dpeliculashdmega.org Aportes de CinemaniaHD la pass es:cinemaniahdd.com

PelícuDelas relacionadas

  • It – Eso (1990) WEBDL 1080p Latino

    1990
    It – Eso (1990) WEBDL 1080p Latino

    0.0 3h 7m 1990

    Descargar Stephen King's It  hd latino, tambien conocida como It o ESO Un tranquilo y pequeño pueblo...

    Director: Tommy Lee Wallace

    Género: Drama

    Actores: Tim Reid

  • The Walking Dead (2017) Temporada 7 Full Latino

    2016
    The Walking Dead (2017) Temporada 7 Full Latino

    0.0 0h 42m 2016

    Descarga The Walking Dead Temporada 7 hd latino, Hasta este punto, nuestros personajes han vivido a través...

    Director: Frank Darabont

    Género: Drama

    Actores: Norman Reedus

  • La momia (2017) Webdl 1080p Latino

    2017
    La momia (2017) Webdl 1080p Latino

    4.0 1h 50m 2017

    Descargar La momia 2017 1080p webdl  Latino, esta pelicula estara disponible con audio latino final...

    Director: Jo Beckett

    Género: Acción

    Actores: Vera Chok

Comentarios 11
  • Sektor - 31 Mayo, 2017

    Hola, los dos audios están desfazados

    • dpelis

      Administrador
      - 31 Mayo, 2017

      yo lo dudo. es ripeo del bluray BD50. donde lo reproduce? y con que reproduce?
      Saludos

  • Byron - 18 Abril, 2017

    Pondran la caratula gris?

    • dpelis

      Administrador
      - 18 Abril, 2017

      si. fin de semana

  • G. P. - 17 Febrero, 2017

    Una tortura china con tanta publicidad basura, no pude bajar nada, mala pagina, hagan algo al respecto o pronto no va a entrar nadie.

    • dpelis

      Administrador
      - 17 Febrero, 2017

      reparado

  • david - 17 Febrero, 2017

    MEGA NO ME DEJA BAJAR LA PELICULA

    • dpelis

      Administrador
      - 17 Febrero, 2017

      amigo como que no deja bajar? siempre enviar captura de error

  • david - 16 Febrero, 2017

    me puedes ayudar los links de mega no estan funcionando gracias

    • dpelis

      Administrador
      - 17 Febrero, 2017

      ya los repare

  • slash - 15 Febrero, 2017

    Gracias.