Jack Reacher Nunca vuelvas atras (2016) Full 1080p Latino

1.168 vistas
1 estrella2 estrellas3 estrellas4 estrellas5 estrellas (Ninguna valoración todavía)
Cargando…

Información de Jack Reacher Nunca vuelvas atras (2016) Full 1080p Latino

Datos de la película

  • Calidad: Full 1080p
  • Audio: Español Latino AC3 5.1 BLURAY - Ingles DTS 5.1 BLURAY
  • Subtitulos: Español Latino PGS - Ingles PGS
  • Resolución: 1920x1080p
  • Formato: MKV
  • Codec: H.264
  • Encoder: Dpelis
  • Mediainfo: Ver Ver
  • Jack Reacher Never Go Back 2016 Full 1080p Latino.mkv
    Format                      : Matroska
    Format version              : Version 4 / Version 2
    File size                   : 6.57 GiB
    Duration                    : 1 h 58 min
    Overall bit rate            : 7 964 kb/s
    Movie name                  : DPeliculasHDMega.ORG
    Encoded date                : UTC 2017-05-25 02:01:58 / UTC 2017-05-24T11:37:54Z
    Writing application         : mkvmerge v8.9.0 ('Father Daughter') 64bit
    Writing library             : libebml v1.3.3 + libmatroska v1.4.4 / Lavf57.7.2

    Video
    ID                          : 1
    Format                      : AVC
    Format/Info                 : Advanced Video Codec
    Format profile              : [email protected]
    Format settings, CABAC      : Yes
    Format settings, ReFrames   : 4 frames
    Codec ID                    : V_MPEG4/ISO/AVC
    Duration                    : 1 h 58 min
    Bit rate                    : 6 526 kb/s
    Width                       : 1 920 pixels
    Height                      : 1 080 pixels
    Display aspect ratio        : 16:9
    Frame rate mode             : Constant
    Frame rate                  : 23.976 (24000/1001) FPS
    Color space                 : YUV
    Chroma subsampling          : 4:2:0
    Bit depth                   : 8 bits
    Scan type                   : Progressive
    Bits/(Pixel*Frame)          : 0.131
    Stream size                 : 5.39 GiB (82%)
    Writing library             : x264 core 148 r2708 86b7198
    Encoding settings           : cabac=1 / ref=4 / deblock=1:0:0 / analyse=0x3:0x133 / me=esa / subme=10 / psy=1 / psy_rd=1.00:0.00 / mixed_ref=1 / me_range=24 / chroma_me=1 / trellis=2 / 8x8dct=1 / cqm=0 / deadzone=21,11 / fast_pskip=1 / chroma_qp_offset=-2 / threads=34 / lookahead_threads=5 / sliced_threads=0 / nr=0 / decimate=1 / interlaced=0 / bluray_compat=0 / constrained_intra=0 / bframes=8 / b_pyramid=2 / b_adapt=2 / b_bias=0 / direct=3 / weightb=1 / open_gop=0 / weightp=2 / keyint=240 / keyint_min=24 / scenecut=40 / intra_refresh=0 / rc_lookahead=60 / rc=crf / mbtree=1 / crf=20.0 / qcomp=0.60 / qpmin=0 / qpmax=69 / qpstep=4 / vbv_maxrate=62500 / vbv_bufsize=78125 / crf_max=0.0 / nal_hrd=none / filler=0 / ip_ratio=1.40 / aq=1:1.00
    Default                     : Yes
    Forced                      : No
    Color range                 : Limited
    Color primaries             : BT.709
    Transfer characteristics    : BT.709
    Matrix coefficients         : BT.709
    Statistics Tags Issue       : mkvmerge v8.9.0 ('Father Daughter') 64bit 2017-05-25 02:01:58 / mkvmerge v8.9.0 ('Father Daughter') 64bit 2017-05-25 02:01:58 / UTC 2017-05-24T11:37:54Z
    FromStats_BitRate           : 6663773
    FromStats_Duration          : 01:58:08.957000000
    FromStats_FrameCount        : 169965
    FromStats_StreamSize        : 5904900830

    Audio #1
    ID                          : 2
    Format                      : AC-3
    Format/Info                 : Audio Coding 3
    Format settings, Endianness : Big
    Codec ID                    : A_AC3
    Duration                    : 1 h 58 min
    Bit rate mode               : Constant
    Bit rate                    : 640 kb/s
    Channel(s)                  : 6 channels
    Channel positions           : Front: L C R, Side: L R, LFE
    Sampling rate               : 48.0 kHz
    Frame rate                  : 31.250 FPS (1536 spf)
    Bit depth                   : 16 bits
    Compression mode            : Lossy
    Stream size                 : 541 MiB (8%)
    Title                       : Surround
    Language                    : Spanish
    Service kind                : Complete Main
    Default                     : Yes
    Forced                      : No
    Statistics Tags Issue       : mkvmerge v8.9.0 ('Father Daughter') 64bit 2017-05-25 02:01:58 / mkvmerge v8.9.0 ('Father Daughter') 64bit 2017-05-25 02:01:58 / UTC 2017-05-24T11:37:54Z
    FromStats_BitRate           : 640000
    FromStats_Duration          : 01:58:08.960000000
    FromStats_FrameCount        : 221530
    FromStats_StreamSize        : 567116800

    Audio #2
    ID                          : 3
    Format                      : AC-3
    Format/Info                 : Audio Coding 3
    Format settings, Endianness : Big
    Codec ID                    : A_AC3
    Duration                    : 1 h 58 min
    Bit rate mode               : Constant
    Bit rate                    : 640 kb/s
    Channel(s)                  : 6 channels
    Channel positions           : Front: L C R, Side: L R, LFE
    Sampling rate               : 48.0 kHz
    Frame rate                  : 31.250 FPS (1536 spf)
    Bit depth                   : 16 bits
    Compression mode            : Lossy
    Stream size                 : 541 MiB (8%)
    Title                       : Surround
    Language                    : English
    Service kind                : Complete Main
    Default                     : No
    Forced                      : No
    Statistics Tags Issue       : mkvmerge v8.9.0 ('Father Daughter') 64bit 2017-05-25 02:01:58 / mkvmerge v8.9.0 ('Father Daughter') 64bit 2017-05-25 02:01:58 / UTC 2017-05-24T11:37:54Z
    FromStats_BitRate           : 640000
    FromStats_Duration          : 01:58:08.960000000
    FromStats_FrameCount        : 221530
    FromStats_StreamSize        : 567116800

    Text #1
    ID                          : 4
    Format                      : PGS
    Muxing mode                 : zlib
    Codec ID                    : S_HDMV/PGS
    Codec ID/Info               : Picture based subtitle format used on BDs/HD-DVDs
    Language                    : Spanish
    Default                     : No
    Forced                      : No
    Statistics Tags Issue       : mkvmerge v8.9.0 ('Father Daughter') 64bit 2017-05-25 02:01:58 / mkvmerge v8.9.0 ('Father Daughter') 64bit 2017-05-25 02:01:58 / UTC 2017-05-24T11:37:54Z
    FromStats_BitRate           : 9082
    FromStats_Duration          : 01:52:13.978000000
    FromStats_FrameCount        : 2548
    FromStats_StreamSize        : 7644899

    Text #2
    ID                          : 5
    Format                      : PGS
    Muxing mode                 : zlib
    Codec ID                    : S_HDMV/PGS
    Codec ID/Info               : Picture based subtitle format used on BDs/HD-DVDs
    Language                    : English
    Default                     : No
    Forced                      : No
    Statistics Tags Issue       : mkvmerge v8.9.0 ('Father Daughter') 64bit 2017-05-25 02:01:58 / mkvmerge v8.9.0 ('Father Daughter') 64bit 2017-05-25 02:01:58 / UTC 2017-05-24T11:37:54Z
    FromStats_BitRate           : 10076
    FromStats_Duration          : 01:51:42.279000000
    FromStats_FrameCount        : 2824
    FromStats_StreamSize        : 8442076

    Menu
    00:00:00.000                : :Chapter 1
    00:07:00.629                : :Chapter 2
    00:15:19.877                : :Chapter 3
    00:20:33.858                : :Chapter 4
    00:29:04.576                : :Chapter 5
    00:34:35.740                : :Chapter 6
    00:42:40.141                : :Chapter 7
    00:49:28.007                : :Chapter 8
    00:58:44.563                : :Chapter 9
    01:03:10.161                : :Chapter 10
    01:09:35.755                : :Chapter 11
    01:15:05.334                : :Chapter 12
    01:21:59.665                : :Chapter 13
    01:27:07.222                : :Chapter 14
    01:34:14.065                : :Chapter 15
    01:46:43.981                : :Chapter 16
    01:53:30.846                : :Chapter 17

  • Peso: 6.57 GB

Sinopsis

Jack Reacher (Tom Cruise) vuelve a su antigua base militar en Virginia. No, resulta que Susan Turner (Cobie Smulders), la mujer que lo reemplazó como jefe de su unidad, que fue detenido por espionaje. Pero algo Reacher sospechoso no coincide, por lo que el exmilitar simplemente huyendo de la ley con él en un intento de encontrar a los verdaderos culpables, mientras que la investigación de los crímenes cometidos en extrañas circunstancias. Su objetivo es, pues, para averiguar la verdad de lo que está sucediendo, pero para llegar allí se va a utilizar el doble de duro, luchando para salvar su nombre y seguir con vida.

Ficha técnica

Imágenes, Capturas de la película

Video trailer de la película

Enlaces de descarga

Descargar Jack Reacher Nunca vuelvas atras (2016) Full 1080p Latino
Descargar

dpeliculas

Aportes de DPeliculasHDmega la pass es:dpeliculashdmega.org Aportes de CinemaniaHD la pass es:cinemaniahdd.com

PelícuDelas relacionadas

  • Poesía sin fin (2016) Full Latino

    2016
    Poesía sin fin (2016) Full Latino

    0.0 0h 0m 2016

    Descargar gratis Poesía sin fin (2016) Full Latino. A traves de la lente autobiográfica de Alejandro...

    Director: Alejandro Jodorowsky

    Género: Drama

    Actores: Pamela Flores

  • El fugitivo (1993) Full 1080p Latino

    1993
    El fugitivo (1993) Full 1080p Latino

    5.0 2h 13m 1993

    El doctor Richard Kimble es un prestigioso cirujano de Chicago con una vida prácticamente perfecta:...

    Director: Andrew Davis

    Género: Acción

    Actores: Turk Muller

  • Dragon Ball Super (2015) Full 1080p Latino

    2015
    Dragon Ball Super (2015) Full 1080p Latino

    4.1 0h 24m 2015

    Si eres un seguidor de la serie Dragon ball super latino, entonces ahora puedes disfrutar de esta maravillosa...

    Director: Akira Toriyama

    Género: Anime

    Actores: Naoki Tatsuta

  • El último virrey de la India (2017) 1080p Latino

    2017
    El último virrey de la India (2017) 1080p Latino

    0.0 1h 47m 2017

    En 1947, Lord Mountbatten (Hugh Bonneville), el bisnieto de la reina Victoria, asume su posición como...

    Director: San Davey

    Género: Drama

    Actores: Trishaan

Comentarios 10
  • RuddyYankee - 28 mayo, 2017

    Gracias por el aporte, cuándo subirán la 1ra con ésta calidad, ya que en la Antigua página están todos los link Caído.

    • dpelis

      Administrador
      - 29 mayo, 2017

      este mes

      • RuddyYankee - 31 mayo, 2017

        Muchas gracias, estaré esperando

  • Byron - 26 mayo, 2017

    Disculpen, ya esta activada de nuevo la pagina antigua? pregunto porque hace 2 días seguia sin movimiento y ahora hay 4 peliculas nuevas.

    • dpelis

      Administrador
      - 26 mayo, 2017

      son las mismas de aqui. saludos

      • Byron - 26 mayo, 2017

        Si ya vi, solo queria saber si ya podian utilizarla de nuevo ajajaja, saludos

  • RipSlyme - 25 mayo, 2017

    Muchas gracias x compartir esta película.
    Alguna posibilidad de compartir también la primera?
    Saludos…