Advertise here

Iron Man 3 (2013) Full 1080p Latino

686 vistas
1 estrella2 estrellas3 estrellas4 estrellas5 estrellas (1 votos, promedio: 4,00 de 5)
Cargando…

Información de Iron Man 3 (2013) Full 1080p Latino

Datos de la película

  • Calidad: Full 1080p
  • Audio: Español Latino AC3 5.1 BLURAY - Ingles DTS 5.1 BLURAY
  • Subtitulos: Español Latino PGS
  • Resolución: 1920X1080
  • Formato: MKV
  • Codec: H.264
  • Encoder: Dpelis
  • Mediainfo: Clic para Mostrar Datos Ver
  • Format                                   : Matroska
    Format version                           : Version 4 / Version 2
    File size                                : 4.56 GiB
    Duration                                 : 2 h 10 min
    Overall bit rate                         : 5 004 kb/s
    Movie name                               : dpeliculashdmega.org
    Encoded date                             : UTC 2017-11-15 05:27:18 / UTC 2017-11-14T14:05:25Z
    Writing application                      : mkvmerge v15.0.0 ('Duel with the Devil') 64-bit
    Writing library                          : libebml v1.3.5 + libmatroska v1.4.5 / Lavf57.7.2

    Video
    ID                                       : 1
    Format                                   : AVC
    Format/Info                              : Advanced Video Codec
    Format profile                           : [email protected]
    Format settings                          : CABAC / 4 Ref Frames
    Format settings, CABAC                   : Yes
    Format settings, RefFrames               : 4 frames
    Codec ID                                 : V_MPEG4/ISO/AVC
    Duration                                 : 2 h 10 min
    Bit rate                                 : 2 756 kb/s
    Width                                    : 1 920 pixels
    Height                                   : 1 080 pixels
    Display aspect ratio                     : 16:9
    Frame rate mode                          : Constant
    Frame rate                               : 23.976 (24000/1001) FPS
    Color space                              : YUV
    Chroma subsampling                       : 4:2:0
    Bit depth                                : 8 bits
    Scan type                                : Progressive
    Bits/(Pixel*Frame)                       : 0.055
    Stream size                              : 2.51 GiB (55%)
    Title                                    : Iron Man 3 (2013) Full 1080p Latino
    Writing library                          : x264 core 148 r2708 86b7198
    Encoding settings                        : cabac=1 / ref=4 / deblock=1:0:0 / analyse=0x3:0x133 / me=esa / subme=10 / psy=1 / psy_rd=1.00:0.00 / mixed_ref=1 / me_range=24 / chroma_me=1 / trellis=2 / 8x8dct=1 / cqm=0 / deadzone=21,11 / fast_pskip=1 / chroma_qp_offset=-2 / threads=34 / lookahead_threads=5 / sliced_threads=0 / nr=0 / decimate=1 / interlaced=0 / bluray_compat=0 / constrained_intra=0 / bframes=8 / b_pyramid=2 / b_adapt=2 / b_bias=0 / direct=3 / weightb=1 / open_gop=0 / weightp=2 / keyint=240 / keyint_min=24 / scenecut=40 / intra_refresh=0 / rc_lookahead=60 / rc=crf / mbtree=1 / crf=20.0 / qcomp=0.60 / qpmin=0 / qpmax=69 / qpstep=4 / vbv_maxrate=62500 / vbv_bufsize=78125 / crf_max=0.0 / nal_hrd=none / filler=0 / ip_ratio=1.40 / aq=1:1.00
    Language                                 : English
    Default                                  : Yes
    Forced                                   : No
    Color range                              : Limited
    Color primaries                          : BT.709
    Transfer characteristics                 : BT.709
    Matrix coefficients                      : BT.709
    Statistics Tags Issue                    : mkvmerge v15.0.0 ('Duel with the Devil') 64-bit 2017-11-15 05:27:18 / mkvmerge v15.0.0 ('Duel with the Devil') 64-bit 2017-11-15 05:27:18 / UTC 2017-11-14T14:05:25Z
    FromStats_BitRate                        : 2841314
    FromStats_Duration                       : 02:10:32.825000000
    FromStats_FrameCount                     : 187800
    FromStats_StreamSize                     : 2781940369

    Audio #1
    ID                                       : 2
    Format                                   : AC-3
    Format/Info                              : Audio Coding 3
    Format settings, Endianness              : Big
    Codec ID                                 : A_AC3
    Duration                                 : 2 h 10 min
    Bit rate mode                            : Constant
    Bit rate                                 : 640 kb/s
    Channel(s)                               : 6 channels
    Channel positions                        : Front: L C R, Side: L R, LFE
    Sampling rate                            : 48.0 kHz
    Frame rate                               : 31.250 FPS (1536 SPF)
    Bit depth                                : 16 bits
    Compression mode                         : Lossy
    Stream size                              : 598 MiB (13%)
    Title                                    : Latino-AC3
    Language                                 : Spanish
    Service kind                             : Complete Main
    Default                                  : Yes
    Forced                                   : No
    Statistics Tags Issue                    : mkvmerge v15.0.0 ('Duel with the Devil') 64-bit 2017-11-15 05:27:18 / mkvmerge v15.0.0 ('Duel with the Devil') 64-bit 2017-11-15 05:27:18 / UTC 2017-11-14T14:05:25Z
    FromStats_BitRate                        : 640000
    FromStats_Duration                       : 02:10:32.896000000
    FromStats_FrameCount                     : 244778
    FromStats_StreamSize                     : 626631680

    Audio #2
    ID                                       : 3
    Format                                   : DTS
    Format/Info                              : Digital Theater Systems
    Mode                                     : 16
    Format settings, Endianness              : Big
    Codec ID                                 : A_DTS
    Duration                                 : 2 h 10 min
    Bit rate mode                            : Constant
    Bit rate                                 : 1 509 kb/s
    Channel(s)                               : 6 channels
    Channel positions                        : Front: L C R, Side: L R, LFE
    Sampling rate                            : 48.0 kHz
    Frame rate                               : 93.750 FPS (512 SPF)
    Bit depth                                : 24 bits
    Compression mode                         : Lossy
    Stream size                              : 1.38 GiB (30%)
    Title                                    : Ingles-DTS
    Language                                 : English
    Default                                  : No
    Forced                                   : No
    Statistics Tags Issue                    : mkvmerge v15.0.0 ('Duel with the Devil') 64-bit 2017-11-15 05:27:18 / mkvmerge v15.0.0 ('Duel with the Devil') 64-bit 2017-11-15 05:27:18 / UTC 2017-11-14T14:05:25Z
    FromStats_BitRate                        : 1508999
    FromStats_Duration                       : 02:10:32.875000000
    FromStats_FrameCount                     : 734332
    FromStats_StreamSize                     : 1477475984

    Text #1
    ID                                       : 4
    Format                                   : PGS
    Muxing mode                              : zlib
    Codec ID                                 : S_HDMV/PGS
    Codec ID/Info                            : Picture based subtitle format used on BDs/HD-DVDs
    Title                                    : PGS-Forzados
    Language                                 : Spanish
    Default                                  : Yes
    Forced                                   : No
    Statistics Tags Issue                    : mkvmerge v15.0.0 ('Duel with the Devil') 64-bit 2017-11-15 05:27:18 / mkvmerge v15.0.0 ('Duel with the Devil') 64-bit 2017-11-15 05:27:18 / UTC 2017-11-14T14:05:25Z
    FromStats_BitRate                        : 74
    FromStats_Duration                       : 02:01:18.229000000
    FromStats_FrameCount                     : 8
    FromStats_StreamSize                     : 67906

    Text #2
    ID                                       : 5
    Format                                   : PGS
    Muxing mode                              : zlib
    Codec ID                                 : S_HDMV/PGS
    Codec ID/Info                            : Picture based subtitle format used on BDs/HD-DVDs
    Title                                    : PGS-Completos
    Language                                 : Spanish
    Default                                  : No
    Forced                                   : No
    Statistics Tags Issue                    : mkvmerge v15.0.0 ('Duel with the Devil') 64-bit 2017-11-15 05:27:18 / mkvmerge v15.0.0 ('Duel with the Devil') 64-bit 2017-11-15 05:27:18 / UTC 2017-11-14T14:05:25Z
    FromStats_BitRate                        : 37577
    FromStats_Duration                       : 02:10:17.977000000
    FromStats_FrameCount                     : 3457
    FromStats_StreamSize                     : 36722238

    Menu
    00:00:00.000                             : :00:00:00.000
    00:04:52.751                             : :00:04:52.751
    00:07:55.433                             : :00:07:55.433
    00:12:12.440                             : :00:12:12.440
    00:19:04.101                             : :00:19:04.101
    00:23:47.885                             : :00:23:47.885
    00:29:47.703                             : :00:29:47.703
    00:39:46.384                             : :00:39:46.384
    00:45:56.045                             : :00:45:56.045
    00:59:19.639                             : :00:59:19.639
    01:01:56.922                             : :01:01:56.922
    01:09:24.452                             : :01:09:24.452
    01:18:41.508                             : :01:18:41.508
    01:23:52.945                             : :01:23:52.945
    01:37:55.995                             : :01:37:55.995
    01:56:18.305                             : :01:56:18.305
    01:59:38.755                             : :01:59:38.755

  • Peso: 4.56 GiB

Sinopsis

En esta ocasión el imponente superhéroe Iron Man intentará mejorar su armadura mediante una nueva tecnología y, entre otros personajes, estará acompañado de su gran amiga Pepper Potts (Gwyneth Paltrow), su aliado de armas James Rhodes y su guardaespaldas Happy Hogan. Esta nueva entrega de la historia se inspira en la colección de comics titulada ‘Extremis’, escrita por Warren Ellis y dibujada por Adi Granov que fue publicada entre el año 2005 y el año 2006. En esta parte, el argumento se desarrolla en un mundo más realista y menos fantasioso que el de las anteriores, donde los acontecimientos sucedidos en ‘Marvel: Los Vengadores’ tienen constancia pero no resultan ser el eje central de la película. De esta forma, el tercer capítulo de la saga Iron Man revolucionará el estilo de las anteriores conservando su esencia, pero con originales innovaciones que sorprenderán a todos los fans de la serie.

Ficha técnica

Video trailer de la película

Enlaces de descarga

Descargar Iron Man 3 (2013) Full 1080p Latino
Descargar

dpeliculas

Aportes de DPeliculasHDmega la pass es:dpeliculashdmega.org Aportes de CinemaniaHD la pass es:cinemaniahdd.com

Películas relacionadas

  • Toy Story 3 (2010) Full 1080p Latino

    2010
    Toy Story 3 (2010) Full 1080p Latino

    0.0 1 h 43 min 2010

    Sabiendo que su dueño Andy, que ya no es un niño, se prepara para ir a la universidad, el vaquero Woody,...

    Director: Mark Sanford

    Género: Animación

    Actores: Whoopi Goldberg

  • Toy Story (1995) Full 1080p Latino

    1995
    Toy Story (1995) Full 1080p Latino

    0.0 1 h 21 min 1995

    Los juguetes de Andy, un niño de 6 años, temen que haya llegado su hora y que un nuevo regalo de cumpleaños...

    Director: Roman Figun

    Género: Animación

    Actores: Wallace Shawn

  • Avatar (2009) EXTENDED Full 1080p Latino

    2009
    Avatar (2009) EXTENDED Full 1080p Latino

    0.0 2 h 58 min 2009

    Jake Sully, un ex-marine confinado a una silla de ruedas, es reclutado para viajar al planeta Pandora,...

    Director: James Cameron

    Género: Acción

    Actores: Zoe Saldana

Comentarios 2
  • KIKE - 16 noviembre, 2017

    Excelente trilogía.. la subieras en 4k ???
    saludos

    • Dpelis2 pelis2

      Autor
      - 16 noviembre, 2017

      Mas adelante. Saludos