Advertise here

Iron Man 2 (2010) Full 1080p Latino

508 vistas
1 estrella2 estrellas3 estrellas4 estrellas5 estrellas (1 votos, promedio: 4,00 de 5)
Cargando…

Información de Iron Man 2 (2010) Full 1080p Latino

Datos de la película

  • Calidad: Full 1080p
  • Audio: Español Latino AC3 5.1 BLURAY - Ingles DTS 5.1 BLURAY
  • Subtitulos: Español Latino PGS - Ingles PGS
  • Resolución: 1920X1080
  • Formato: MKV
  • Codec: H.264
  • Encoder: Dpelis
  • Mediainfo: Clic para Mostrar Datos Ver
  • Format                                   : Matroska
    Format version                           : Version 4 / Version 2
    File size                                : 7.17 GiB
    Duration                                 : 2 h 4 min
    Overall bit rate                         : 8 237 kb/s
    Movie name                               : dpeliculashdmega.org
    Encoded date                             : UTC 2017-11-15 04:47:54 / UTC 2017-11-14T09:50:07Z
    Writing application                      : mkvmerge v15.0.0 ('Duel with the Devil') 64-bit
    Writing library                          : libebml v1.3.5 + libmatroska v1.4.5 / Lavf57.7.2

    Video
    ID                                       : 1
    Format                                   : AVC
    Format/Info                              : Advanced Video Codec
    Format profile                           : [email protected]
    Format settings                          : CABAC / 4 Ref Frames
    Format settings, CABAC                   : Yes
    Format settings, RefFrames               : 4 frames
    Codec ID                                 : V_MPEG4/ISO/AVC
    Duration                                 : 2 h 4 min
    Bit rate                                 : 5 924 kb/s
    Width                                    : 1 920 pixels
    Height                                   : 1 080 pixels
    Display aspect ratio                     : 16:9
    Frame rate mode                          : Constant
    Frame rate                               : 23.976 (24000/1001) FPS
    Color space                              : YUV
    Chroma subsampling                       : 4:2:0
    Bit depth                                : 8 bits
    Scan type                                : Progressive
    Bits/(Pixel*Frame)                       : 0.119
    Stream size                              : 5.16 GiB (72%)
    Title                                    : Iron Man 2 (2010) Full 1080p Latino
    Writing library                          : x264 core 148 r2708 86b7198
    Encoding settings                        : cabac=1 / ref=4 / deblock=1:0:0 / analyse=0x3:0x133 / me=esa / subme=10 / psy=1 / psy_rd=1.00:0.00 / mixed_ref=1 / me_range=24 / chroma_me=1 / trellis=2 / 8x8dct=1 / cqm=0 / deadzone=21,11 / fast_pskip=1 / chroma_qp_offset=-2 / threads=34 / lookahead_threads=5 / sliced_threads=0 / nr=0 / decimate=1 / interlaced=0 / bluray_compat=0 / constrained_intra=0 / bframes=8 / b_pyramid=2 / b_adapt=2 / b_bias=0 / direct=3 / weightb=1 / open_gop=0 / weightp=2 / keyint=240 / keyint_min=24 / scenecut=40 / intra_refresh=0 / rc_lookahead=60 / rc=crf / mbtree=1 / crf=20.0 / qcomp=0.60 / qpmin=0 / qpmax=69 / qpstep=4 / vbv_maxrate=62500 / vbv_bufsize=78125 / crf_max=0.0 / nal_hrd=none / filler=0 / ip_ratio=1.40 / aq=1:1.00
    Language                                 : English
    Default                                  : Yes
    Forced                                   : No
    Color range                              : Limited
    Color primaries                          : BT.709
    Transfer characteristics                 : BT.709
    Matrix coefficients                      : BT.709
    Statistics Tags Issue                    : mkvmerge v15.0.0 ('Duel with the Devil') 64-bit 2017-11-15 04:47:54 / mkvmerge v15.0.0 ('Duel with the Devil') 64-bit 2017-11-15 04:47:54 / UTC 2017-11-14T09:50:07Z
    FromStats_BitRate                        : 6062673
    FromStats_Duration                       : 02:04:39.097000000
    FromStats_FrameCount                     : 179319
    FromStats_StreamSize                     : 5667915211

    Audio #1
    ID                                       : 2
    Format                                   : AC-3
    Format/Info                              : Audio Coding 3
    Format settings, Endianness              : Big
    Codec ID                                 : A_AC3
    Duration                                 : 2 h 4 min
    Bit rate mode                            : Constant
    Bit rate                                 : 640 kb/s
    Channel(s)                               : 6 channels
    Channel positions                        : Front: L C R, Side: L R, LFE
    Sampling rate                            : 48.0 kHz
    Frame rate                               : 31.250 FPS (1536 SPF)
    Bit depth                                : 16 bits
    Compression mode                         : Lossy
    Delay relative to video                  : 7 s 0 ms
    Stream size                              : 571 MiB (8%)
    Title                                    : Latino-AC3
    Language                                 : Spanish
    Service kind                             : Complete Main
    Default                                  : Yes
    Forced                                   : No
    Statistics Tags Issue                    : mkvmerge v15.0.0 ('Duel with the Devil') 64-bit 2017-11-15 04:47:54 / mkvmerge v15.0.0 ('Duel with the Devil') 64-bit 2017-11-15 04:47:54 / UTC 2017-11-14T09:50:07Z
    FromStats_BitRate                        : 640000
    FromStats_Duration                       : 02:04:28.768000000
    FromStats_FrameCount                     : 233399
    FromStats_StreamSize                     : 597501440

    Audio #2
    ID                                       : 3
    Format                                   : DTS
    Format/Info                              : Digital Theater Systems
    Mode                                     : 16
    Format settings, Endianness              : Big
    Codec ID                                 : A_DTS
    Duration                                 : 2 h 4 min
    Bit rate mode                            : Constant
    Bit rate                                 : 1 509 kb/s
    Channel(s)                               : 6 channels
    Channel positions                        : Front: L C R, Side: L R, LFE
    Sampling rate                            : 48.0 kHz
    Frame rate                               : 93.750 FPS (512 SPF)
    Bit depth                                : 24 bits
    Compression mode                         : Lossy
    Stream size                              : 1.31 GiB (18%)
    Title                                    : Ingles-DTS
    Language                                 : English
    Default                                  : No
    Forced                                   : No
    Statistics Tags Issue                    : mkvmerge v15.0.0 ('Duel with the Devil') 64-bit 2017-11-15 04:47:54 / mkvmerge v15.0.0 ('Duel with the Devil') 64-bit 2017-11-15 04:47:54 / UTC 2017-11-14T09:50:07Z
    FromStats_BitRate                        : 1509000
    FromStats_Duration                       : 02:04:39.136000000
    FromStats_FrameCount                     : 701169
    FromStats_StreamSize                     : 1410752028

    Text #1
    ID                                       : 4
    Format                                   : PGS
    Muxing mode                              : zlib
    Codec ID                                 : S_HDMV/PGS
    Codec ID/Info                            : Picture based subtitle format used on BDs/HD-DVDs
    Language                                 : English
    Default                                  : No
    Forced                                   : No
    Statistics Tags Issue                    : mkvmerge v15.0.0 ('Duel with the Devil') 64-bit 2017-11-15 04:47:54 / mkvmerge v15.0.0 ('Duel with the Devil') 64-bit 2017-11-15 04:47:54 / UTC 2017-11-14T09:50:07Z
    FromStats_BitRate                        : 46413
    FromStats_Duration                       : 02:04:09.525000000
    FromStats_FrameCount                     : 3442
    FromStats_StreamSize                     : 43219818

    Text #2
    ID                                       : 5
    Format                                   : PGS
    Muxing mode                              : zlib
    Codec ID                                 : S_HDMV/PGS
    Codec ID/Info                            : Picture based subtitle format used on BDs/HD-DVDs
    Language                                 : Spanish
    Default                                  : No
    Forced                                   : No
    Statistics Tags Issue                    : mkvmerge v15.0.0 ('Duel with the Devil') 64-bit 2017-11-15 04:47:54 / mkvmerge v15.0.0 ('Duel with the Devil') 64-bit 2017-11-15 04:47:54 / UTC 2017-11-14T09:50:07Z
    FromStats_BitRate                        : 32234
    FromStats_Duration                       : 02:04:09.567000000
    FromStats_FrameCount                     : 3002
    FromStats_StreamSize                     : 30016901

    Menu
    00:00:00.000                             : :Across the Globe
    00:05:04.304                             : :Stark Expo
    00:11:07.584                             : :Senate Hearing
    00:17:59.954                             : :Palladium Poisoning
    00:25:53.010                             : :Grand Prix De Manoco
    00:30:26.783                             : :Vanko Attacks
    00:37:33.001                             : :Confronted
    00:43:59.637                             : :Justin Hammer Hires Vanko
    00:51:39.346                             : :Last Birthday Party
    01:00:10.524                             : :Vanko's Bird
    01:07:01.518                             : :S.H.I.E.L.D.
    01:16:00.765                             : :Pepper's Office
    01:21:13.285                             : :New Element
    01:30:33.553                             : :Hammer Drones
    01:38:49.340                             : :Remote Controlled
    01:45:41.794                             : :Showdown
    01:54:17.351                             : :End Credits

  • Peso: 7.17 GiB

Sinopsis

El mundo ya sabe que el multimillonario Tony Stark (Robert Downey Jr.) es Iron Man, el superhéroe enmascarado. A pesar de las presiones del gobierno, la prensa y la opinión pública para que comparta su tecnología con el ejército, Tony es reacio a desvelar los secretos de la armadura de Iron Man, porque teme que esa información caiga en en manos de irresponsables. Con Pepper Potts (Gwyneth Paltrow) y James “Rhodey” Rhodes (Don Cheadle) a su lado, Tony forja alianzas nuevas y se enfrenta a nuevas y poderosas fuerzas.

Ficha técnica

Video trailer de la película

Enlaces de descarga

Descargar Iron Man 2 (2010) Full 1080p Latino
Descargar

dpeliculas

Aportes de DPeliculasHDmega la pass es:dpeliculashdmega.org Aportes de CinemaniaHD la pass es:cinemaniahdd.com

Películas relacionadas

  • Toy Story 3 (2010) Full 1080p Latino

    2010
    Toy Story 3 (2010) Full 1080p Latino

    0.0 1 h 43 min 2010

    Sabiendo que su dueño Andy, que ya no es un niño, se prepara para ir a la universidad, el vaquero Woody,...

    Director: Mark Sanford

    Género: Animación

    Actores: Whoopi Goldberg

  • Toy Story (1995) Full 1080p Latino

    1995
    Toy Story (1995) Full 1080p Latino

    0.0 1 h 21 min 1995

    Los juguetes de Andy, un niño de 6 años, temen que haya llegado su hora y que un nuevo regalo de cumpleaños...

    Director: Roman Figun

    Género: Animación

    Actores: Wallace Shawn

  • Avatar (2009) EXTENDED Full 1080p Latino

    2009
    Avatar (2009) EXTENDED Full 1080p Latino

    0.0 2 h 58 min 2009

    Jake Sully, un ex-marine confinado a una silla de ruedas, es reclutado para viajar al planeta Pandora,...

    Director: James Cameron

    Género: Acción

    Actores: Zoe Saldana

Comentarios 0