Invicto (2002) Full 1080p Latino

484 vistas
1 estrella2 estrellas3 estrellas4 estrellas5 estrellas (Ninguna valoración todavía)
Cargando…

Información de Invicto (2002) Full 1080p Latino

Datos de la película

  • Calidad: Full 1080p
  • Audio: Español Latino AC3 2.0 DVD - Ingles AC3 5.1 BLURAY
  • Subtitulos: Español Latino SRT - Ingles SRT
  • Resolución: 1920x1080p
  • Formato: MKV
  • Codec: H.264
  • Encoder: Dpelis
  • Mediainfo: Ver Ver
  • Undisputed (2002) Full 1080p Latino.mkv
    Format                      : Matroska
    Format version              : Version 4 / Version 2
    File size                   : 9.42 GiB
    Duration                    : 1 h 33 min
    Overall bit rate            : 14.4 Mb/s
    Movie name                  : DPeliculasHDMega.OEG
    Encoded date                : UTC 2017-08-13 18:53:15 / UTC 2017-08-05T12:30:18Z
    Writing application         : mkvmerge v10.0.0 ('To Drown In You') 64bit
    Writing library             : libebml v1.3.4 + libmatroska v1.4.5 / Lavf57.7.2

    Video
    ID                          : 1
    Format                      : AVC
    Format/Info                 : Advanced Video Codec
    Format profile              : [email protected]
    Format settings, CABAC      : Yes
    Format settings, ReFrames   : 4 frames
    Codec ID                    : V_MPEG4/ISO/AVC
    Duration                    : 1 h 33 min
    Bit rate                    : 13.4 Mb/s
    Width                       : 1 920 pixels
    Height                      : 1 080 pixels
    Display aspect ratio        : 16:9
    Frame rate mode             : Constant
    Frame rate                  : 23.976 (24000/1001) FPS
    Color space                 : YUV
    Chroma subsampling          : 4:2:0
    Bit depth                   : 8 bits
    Scan type                   : Progressive
    Bits/(Pixel*Frame)          : 0.270
    Stream size                 : 8.78 GiB (93%)
    Writing library             : x264 core 148 r2708 86b7198
    Encoding settings           : cabac=1 / ref=4 / deblock=1:0:0 / analyse=0x3:0x133 / me=esa / subme=10 / psy=1 / psy_rd=1.00:0.00 / mixed_ref=1 / me_range=24 / chroma_me=1 / trellis=2 / 8x8dct=1 / cqm=0 / deadzone=21,11 / fast_pskip=1 / chroma_qp_offset=-2 / threads=34 / lookahead_threads=5 / sliced_threads=0 / nr=0 / decimate=1 / interlaced=0 / bluray_compat=0 / constrained_intra=0 / bframes=8 / b_pyramid=2 / b_adapt=2 / b_bias=0 / direct=3 / weightb=1 / open_gop=0 / weightp=2 / keyint=240 / keyint_min=24 / scenecut=40 / intra_refresh=0 / rc_lookahead=60 / rc=crf / mbtree=1 / crf=20.0 / qcomp=0.60 / qpmin=0 / qpmax=69 / qpstep=4 / vbv_maxrate=62500 / vbv_bufsize=78125 / crf_max=0.0 / nal_hrd=none / filler=0 / ip_ratio=1.40 / aq=1:1.00
    Default                     : Yes
    Forced                      : No
    Color range                 : Limited
    Color primaries             : BT.709
    Transfer characteristics    : BT.709
    Matrix coefficients         : BT.709
    Statistics Tags Issue       : mkvmerge v10.0.0 ('To Drown In You') 64bit 2017-08-13 18:53:15 / mkvmerge v10.0.0 ('To Drown In You') 64bit 2017-08-13 18:53:15 / UTC 2017-08-05T12:30:18Z
    FromStats_BitRate           : 13706707
    FromStats_Duration          : 01:33:36.862000000
    FromStats_FrameCount        : 134670
    FromStats_StreamSize        : 9623585497

    Audio #1
    ID                          : 2
    Format                      : AC-3
    Format/Info                 : Audio Coding 3
    Format settings, Endianness : Big
    Codec ID                    : A_AC3
    Duration                    : 1 h 33 min
    Bit rate mode               : Constant
    Bit rate                    : 256 kb/s
    Channel(s)                  : 2 channels
    Channel positions           : Front: L R
    Sampling rate               : 48.0 kHz
    Frame rate                  : 31.250 FPS (1536 spf)
    Bit depth                   : 16 bits
    Compression mode            : Lossy
    Stream size                 : 171 MiB (2%)
    Language                    : Spanish
    Service kind                : Complete Main
    Default                     : Yes
    Forced                      : No
    Statistics Tags Issue       : mkvmerge v10.0.0 ('To Drown In You') 64bit 2017-08-13 18:53:15 / mkvmerge v10.0.0 ('To Drown In You') 64bit 2017-08-13 18:53:15 / UTC 2017-08-05T12:30:18Z
    FromStats_BitRate           : 256000
    FromStats_Duration          : 01:33:36.864000000
    FromStats_FrameCount        : 175527
    FromStats_StreamSize        : 179739648

    Audio #2
    ID                          : 3
    Format                      : AC-3
    Format/Info                 : Audio Coding 3
    Format settings, Endianness : Big
    Codec ID                    : A_AC3
    Duration                    : 1 h 33 min
    Bit rate mode               : Constant
    Bit rate                    : 448 kb/s
    Channel(s)                  : 6 channels
    Channel positions           : Front: L C R, Side: L R, LFE
    Sampling rate               : 48.0 kHz
    Frame rate                  : 31.250 FPS (1536 spf)
    Bit depth                   : 16 bits
    Compression mode            : Lossy
    Stream size                 : 300 MiB (3%)
    Title                       : Surround
    Language                    : English
    Service kind                : Complete Main
    Default                     : No
    Forced                      : No
    Statistics Tags Issue       : mkvmerge v10.0.0 ('To Drown In You') 64bit 2017-08-13 18:53:15 / mkvmerge v10.0.0 ('To Drown In You') 64bit 2017-08-13 18:53:15 / UTC 2017-08-05T12:30:18Z
    FromStats_BitRate           : 448000
    FromStats_Duration          : 01:33:37.056000000
    FromStats_FrameCount        : 175533
    FromStats_StreamSize        : 314555136

    Text #1
    ID                          : 4
    Format                      : UTF-8
    Codec ID                    : S_TEXT/UTF8
    Codec ID/Info               : UTF-8 Plain Text
    Language                    : Spanish
    Default                     : No
    Forced                      : No
    Statistics Tags Issue       : mkvmerge v10.0.0 ('To Drown In You') 64bit 2017-08-13 18:53:15 / mkvmerge v10.0.0 ('To Drown In You') 64bit 2017-08-13 18:53:15 / UTC 2017-08-05T12:30:18Z
    FromStats_BitRate           : 65
    FromStats_Duration          : 01:26:04.790000000
    FromStats_FrameCount        : 1211
    FromStats_StreamSize        : 42114

    Text #2
    ID                          : 5
    Format                      : UTF-8
    Codec ID                    : S_TEXT/UTF8
    Codec ID/Info               : UTF-8 Plain Text
    Language                    : English
    Default                     : No
    Forced                      : No
    Statistics Tags Issue       : mkvmerge v10.0.0 ('To Drown In You') 64bit 2017-08-13 18:53:15 / mkvmerge v10.0.0 ('To Drown In You') 64bit 2017-08-13 18:53:15 / UTC 2017-08-05T12:30:18Z
    FromStats_BitRate           : 65
    FromStats_Duration          : 01:26:01.790000000
    FromStats_FrameCount        : 1211
    FromStats_StreamSize        : 42112

    Text #3
    ID                          : 6
    Format                      : UTF-8
    Codec ID                    : S_TEXT/UTF8
    Codec ID/Info               : UTF-8 Plain Text
    Language                    : Spanish
    Default                     : Yes
    Forced                      : No
    Statistics Tags Issue       : mkvmerge v10.0.0 ('To Drown In You') 64bit 2017-08-13 18:53:15 / mkvmerge v10.0.0 ('To Drown In You') 64bit 2017-08-13 18:53:15 / UTC 2017-08-05T12:30:18Z
    FromStats_BitRate           : 28
    FromStats_Duration          : 00:00:20.100000000
    FromStats_FrameCount        : 1
    FromStats_StreamSize        : 71

    Menu
    00:00:00.000                : :Chapitre 01
    00:04:41.615                : :Chapitre 02
    00:07:58.728                : :Chapitre 03
    00:12:45.556                : :Chapitre 04
    00:16:19.437                : :Chapitre 05
    00:20:31.355                : :Chapitre 06
    00:23:59.980                : :Chapitre 07
    00:28:02.890                : :Chapitre 08
    00:30:09.224                : :Chapitre 09
    00:35:45.727                : :Chapitre 10
    00:42:41.476                : :Chapitre 11
    00:46:53.853                : :Chapitre 12
    00:51:22.371                : :Chapitre 13
    00:54:40.360                : :Chapitre 14
    00:59:53.590                : :Chapitre 15
    01:05:12.409                : :Chapitre 16
    01:11:51.224                : :Chapitre 17
    01:17:06.872                : :Chapitre 18
    01:23:47.814                : :Chapitre 19
    01:26:47.661                : :Chapitre 20

  • Peso: 9.42 GB

Sinopsis

Descargar Undisputed hd latino tambine conocida con el titulo latino Invicto 1080p Latino El campeón mundial de boxeo en la categoría de pesos pesados George “Iceman” Chambers (Ving Rhames) es enviado a prisión acusado de violación, cargo del que él se declara totalmente inocente. Lo que más le indigna es que en la cima de su carrera de boxeador profesional no va a poder disfrutar y defender su título de campeón invicto. Cumpliendo cadena perpetua por un crimen pasional en la misma penitenciaría a la que será enviado Iceman se encuentra Monroe Hutchen (Wesley Snipes). Los reclusos consideran a Hutchen como a un héroe, como a su indiscutible campeón de boxeo. Resignado a pasar el resto de su vida en la cárcel, a Hutchen todavía le obsesiona, sin embargo, la duda de si hubiera podido llegar a ser alguien como boxeador.

Ficha técnica

Imágenes, Capturas de la película

Video trailer de la película

Enlaces de descarga

Descargar Invicto (2002) Full 1080p Latino
Descargar

dpeliculas

Aportes de DPeliculasHDmega la pass es:dpeliculashdmega.org Aportes de CinemaniaHD la pass es:cinemaniahdd.com

PelícuDelas relacionadas

Comentarios 0