I’m Not Ashamed (2016) 1080p Latino

1.241 vistas
1 estrella2 estrellas3 estrellas4 estrellas5 estrellas (Ninguna valoración todavía)
Cargando…

Información de I’m Not Ashamed (2016) 1080p Latino

Datos de la película

  • Calidad: 1080p
  • Audio: Español Latino AC3 2.0 iTUNES - Ingles AC3 5.1 BLURAY
  • Subtitulos: Español Latino SRT - Ingles SRT
  • Resolución: 1920x1080p
  • Formato: MKV
  • Codec: H.264
  • Encoder: Dpelis
  • Mediainfo: Ver Ver
  • I'm Not Ashamed (2016) 1080p Latino.mkv
    Format                      : Matroska
    Format version              : Version 4 / Version 2
    File size                   : 3.18 GiB
    Duration                    : 1 h 52 min
    Overall bit rate            : 4 050 kb/s
    Movie name                  : DPeliculasHDMega.ORG
    Encoded date                : UTC 2017-08-07 23:39:37
    Writing application         : mkvmerge v10.0.0 ('To Drown In You') 64bit
    Writing library             : libebml v1.3.4 + libmatroska v1.4.5

    Video
    ID                          : 1
    Format                      : AVC
    Format/Info                 : Advanced Video Codec
    Format profile              : [email protected]
    Format settings, CABAC      : Yes
    Format settings, ReFrames   : 4 frames
    Codec ID                    : V_MPEG4/ISO/AVC
    Duration                    : 1 h 52 min
    Bit rate                    : 3 500 kb/s
    Width                       : 1 920 pixels
    Height                      : 1 080 pixels
    Display aspect ratio        : 16:9
    Frame rate mode             : Constant
    Frame rate                  : 23.976 (24000/1001) FPS
    Color space                 : YUV
    Chroma subsampling          : 4:2:0
    Bit depth                   : 8 bits
    Scan type                   : Progressive
    Bits/(Pixel*Frame)          : 0.070
    Stream size                 : 2.73 GiB (86%)
    Writing library             : x264 core 148 r2708 86b7198
    Encoding settings           : cabac=1 / ref=3 / deblock=1:0:0 / analyse=0x3:0x113 / me=hex / subme=7 / psy=1 / psy_rd=1.00:0.00 / mixed_ref=1 / me_range=16 / chroma_me=1 / trellis=1 / 8x8dct=1 / cqm=0 / deadzone=21,11 / fast_pskip=1 / chroma_qp_offset=-2 / threads=34 / lookahead_threads=5 / sliced_threads=0 / nr=0 / decimate=1 / interlaced=0 / bluray_compat=0 / constrained_intra=0 / bframes=3 / b_pyramid=2 / b_adapt=1 / b_bias=0 / direct=1 / weightb=1 / open_gop=0 / weightp=2 / keyint=240 / keyint_min=24 / scenecut=40 / intra_refresh=0 / rc_lookahead=40 / rc=abr / mbtree=1 / bitrate=3500 / ratetol=1.0 / qcomp=0.60 / qpmin=0 / qpmax=69 / qpstep=4 / vbv_maxrate=62500 / vbv_bufsize=78125 / nal_hrd=none / filler=0 / ip_ratio=1.40 / aq=1:1.00
    Default                     : Yes
    Forced                      : No
    Color range                 : Limited
    Color primaries             : BT.709
    Transfer characteristics    : BT.709
    Matrix coefficients         : BT.709

    Audio #1
    ID                          : 2
    Format                      : AC-3
    Format/Info                 : Audio Coding 3
    Format settings, Endianness : Big
    Codec ID                    : A_AC3
    Duration                    : 1 h 52 min
    Bit rate mode               : Constant
    Bit rate                    : 192 kb/s
    Channel(s)                  : 2 channels
    Channel positions           : Front: L R
    Sampling rate               : 48.0 kHz
    Frame rate                  : 31.250 FPS (1536 spf)
    Bit depth                   : 16 bits
    Compression mode            : Lossy
    Delay relative to video     : 3 ms
    Stream size                 : 154 MiB (5%)
    Language                    : Spanish
    Service kind                : Complete Main
    Default                     : Yes
    Forced                      : No

    Audio #2
    ID                          : 3
    Format                      : AC-3
    Format/Info                 : Audio Coding 3
    Format settings, Endianness : Big
    Codec ID                    : A_AC3
    Duration                    : 1 h 52 min
    Bit rate mode               : Constant
    Bit rate                    : 384 kb/s
    Channel(s)                  : 6 channels
    Channel positions           : Front: L C R, Side: L R, LFE
    Sampling rate               : 48.0 kHz
    Frame rate                  : 31.250 FPS (1536 spf)
    Bit depth                   : 16 bits
    Compression mode            : Lossy
    Delay relative to video     : -5 ms
    Stream size                 : 309 MiB (9%)
    Language                    : English
    Service kind                : Complete Main
    Default                     : No
    Forced                      : No

    Text #1
    ID                          : 4
    Format                      : UTF-8
    Codec ID                    : S_TEXT/UTF8
    Codec ID/Info               : UTF-8 Plain Text
    Duration                    : 1 h 51 min
    Bit rate                    : 64 b/s
    Count of elements           : 1730
    Stream size                 : 52.8 KiB (0%)
    Default                     : Yes
    Forced                      : No

    Text #2
    ID                          : 5
    Format                      : UTF-8
    Codec ID                    : S_TEXT/UTF8
    Codec ID/Info               : UTF-8 Plain Text
    Duration                    : 1 h 51 min
    Bit rate                    : 65 b/s
    Count of elements           : 1818
    Stream size                 : 53.3 KiB (0%)
    Default                     : No
    Forced                      : No

    Menu
    00:00:00.000                : en:Chapter 1
    00:07:28.239                : en:Chapter 2
    00:13:19.590                : en:Chapter 3
    00:20:23.180                : en:Chapter 4
    00:27:03.163                : en:Chapter 5
    00:33:49.069                : en:Chapter 6
    00:36:07.749                : en:Chapter 7
    00:41:30.863                : en:Chapter 8
    00:47:08.701                : en:Chapter 9
    00:50:23.979                : en:Chapter 10
    00:57:35.327                : en:Chapter 11
    01:05:30.051                : en:Chapter 12
    01:10:16.254                : en:Chapter 13
    01:13:39.248                : en:Chapter 14
    01:17:07.873                : en:Chapter 15
    01:21:12.659                : en:Chapter 16
    01:26:39.444                : en:Chapter 17
    01:30:40.810                : en:Chapter 18
    01:38:01.000                : en:Chapter 19
    01:44:19.587                : en:Chapter 20

  • Peso: 3.18 GB

Sinopsis

Descargar Pelicula I’m Not Ashamed  hd latino , tambien conocida hablando con el. El 20 de abril de 1999 en la escuela secundaria Columbine, dos estudiantes adolescentes entraron en los edificios con armas de fuego y artefactos explosivos improvisados, con la intención de matar a muchos de sus compañeros de clase. Al final, los dos chicos terminaron matando a doce estudiantes y un profesor antes de suicidarse. Esta película está basada en los escritos y el diario de la alegría Rachel Scott, la primera víctima. “No me da vergüenza ‘es la historia de Rachel de sus propias palabras. Esta película muestra cómo Cristiano Rachel compartió su amor por Jesús con todos a su alrededor. Incluyendo sus asesinos. Protagonizada por Masey McLain como Rachel alegría Scott, Ben Davies como Nathan Ballard, Cameron McKendry como Alex Dickerson, David Errigo Jr como Eric Harris y Cory Chapman como Dylan Klebold.

Ficha técnica

  • Titulo original: I'm Not Ashamed
  • Fecha de lanzamiento: 21-10-2016 (United States of America)
  • Director: Brian Baugh
  • Género: Drama
  • Puntuación: 0.0 0 votos
  • Duración:
    1h 52m

Imágenes, Capturas de la película

Video trailer de la película

Enlaces de descarga

Descargar I’m Not Ashamed (2016) 1080p Latino
Descargar

dpeliculas

Aportes de DPeliculasHDmega la pass es:dpeliculashdmega.org Aportes de CinemaniaHD la pass es:cinemaniahdd.com
Guardado en : Drama

PelícuDelas relacionadas

  • La vida de Pi (2012) 2160p 4K UHD Latino-Ingles

    2012
    La vida de Pi (2012) 2160p 4K UHD Latino-Ingles

    0.0 2h 7m 2012

    Descargar gratis La vida de Pi (2012) 2160p 4K UHD Latino-Ingles.  Pi Patel es un muchacho cuyo padre...

    Director: Ang Lee

    Género: 4K HDR

    Actores: Wang Bo-Chieh

  • Arrow (2017) Temporada 6 WEBDL 1080p Subtitulada

    2012
    Arrow (2017) Temporada 6 WEBDL 1080p Subtitulada

    0.0 0h 42m 2012

    Con el futuro del equipo pendiendo de un hilo, Arrow le dio una nueva definición a la frase “explotar...

    Director: Marc Guggenheim

    Género: Acción

    Actores: Willa Holland

  • La guerra del planeta de los simios (2017) 1080p Latino

    2017
    La guerra del planeta de los simios (2017) 1080p Latino

    5.0 2h 20m 2017

    En War for the Planet of the Apes, el tercer capítulo de la exitosa franquicia aclamada por la crítica,...

    Director: Matt Reeves

    Género: Ciencia ficción

    Actores: Woody Harrelson

  • En este rincón del mundo (2016) 1080p Latino

    2016
    En este rincón del mundo (2016) 1080p Latino

    0.0 2h 10m 2016

    La historia narra la vida de una familia residente en la ciudad de Kure (Hiroshima) durante la II Guerra...

    Director: Sunao Katabuchi

    Género: Animación

    Actores: Yoshimasa Hosoya

Comentarios 2
  • mauricio - 15 agosto, 2017

    esta malo el rar 2

    • dpelis

      Administrador
      - 16 agosto, 2017

      raparar la parte danada o bien bajar la parte de otro servidor.