Icarus (2017) Webdl 1080p Latino

779 vistas
1 estrella2 estrellas3 estrellas4 estrellas5 estrellas (1 votos, promedio: 5,00 de 5)
Cargando…

Información de Icarus (2017) Webdl 1080p Latino

Datos de la película

  • Calidad: WEBDL
  • Audio: Español Latino AC3 5.1 Netflix - Ingles AC3 5.1 Netflix
  • Subtitulos: Español Latino SRT
  • Resolución: 1920x1080p
  • Formato: MKV
  • Codec: H.264
  • Encoder: Dpelis
  • Mediainfo: Ver Ver
  • Icarus.2017.1080p.webrip.Latino.mkv
    Format                      : Matroska
    Format version              : Version 4 / Version 2
    File size                   : 3.42 GiB
    Duration                    : 2 h 1 min
    Overall bit rate            : 4 046 kb/s
    Movie name                  : DPeliculasHDMega.ORG
    Encoded date                : UTC 2017-08-05 12:03:19 / UTC 2017-08-05T04:26:43Z
    Writing application         : mkvmerge v10.0.0 ('To Drown In You') 64bit
    Writing library             : libebml v1.3.4 + libmatroska v1.4.5 / Lavf57.7.2

    Video
    ID                          : 1
    Format                      : AVC
    Format/Info                 : Advanced Video Codec
    Format profile              : [email protected]
    Format settings, CABAC      : Yes
    Format settings, ReFrames   : 4 frames
    Codec ID                    : V_MPEG4/ISO/AVC
    Duration                    : 2 h 1 min
    Bit rate                    : 3 500 kb/s
    Width                       : 1 920 pixels
    Height                      : 1 080 pixels
    Display aspect ratio        : 16:9
    Frame rate mode             : Constant
    Frame rate                  : 23.976 (24000/1001) FPS
    Color space                 : YUV
    Chroma subsampling          : 4:2:0
    Bit depth                   : 8 bits
    Scan type                   : Progressive
    Bits/(Pixel*Frame)          : 0.070
    Stream size                 : 2.87 GiB (84%)
    Writing library             : x264 core 148 r2708 86b7198
    Encoding settings           : cabac=1 / ref=3 / deblock=1:0:0 / analyse=0x3:0x113 / me=hex / subme=7 / psy=1 / psy_rd=1.00:0.00 / mixed_ref=1 / me_range=16 / chroma_me=1 / trellis=1 / 8x8dct=1 / cqm=0 / deadzone=21,11 / fast_pskip=1 / chroma_qp_offset=-2 / threads=12 / lookahead_threads=2 / sliced_threads=0 / nr=0 / decimate=1 / interlaced=0 / bluray_compat=0 / constrained_intra=0 / bframes=3 / b_pyramid=2 / b_adapt=1 / b_bias=0 / direct=1 / weightb=1 / open_gop=0 / weightp=2 / keyint=240 / keyint_min=24 / scenecut=40 / intra_refresh=0 / rc_lookahead=40 / rc=abr / mbtree=1 / bitrate=3500 / ratetol=1.0 / qcomp=0.60 / qpmin=0 / qpmax=69 / qpstep=4 / vbv_maxrate=62500 / vbv_bufsize=78125 / nal_hrd=none / filler=0 / ip_ratio=1.40 / aq=1:1.00
    Default                     : Yes
    Forced                      : No
    Color range                 : Limited
    Color primaries             : BT.709
    Transfer characteristics    : BT.709
    Matrix coefficients         : BT.709
    Statistics Tags Issue       : mkvmerge v10.0.0 ('To Drown In You') 64bit 2017-08-05 12:03:19 / mkvmerge v10.0.0 ('To Drown In You') 64bit 2017-08-05 12:03:19 / UTC 2017-08-05T04:26:43Z
    FromStats_BitRate           : 3467462
    FromStats_Duration          : 02:01:11.640000000
    FromStats_FrameCount        : 174345
    FromStats_StreamSize        : 3151767015

    Audio #1
    ID                          : 2
    Format                      : E-AC-3
    Format/Info                 : Enhanced Audio Coding 3
    Format settings, Endianness : Big
    Codec ID                    : A_EAC3
    Duration                    : 2 h 1 min
    Bit rate mode               : Constant
    Bit rate                    : 192 kb/s
    Channel(s)                  : 6 channels
    Channel positions           : Front: L C R, Side: L R, LFE
    Sampling rate               : 48.0 kHz
    Frame rate                  : 187.500 FPS (256 spf)
    Compression mode            : Lossy
    Delay relative to video     : -5 ms
    Stream size                 : 166 MiB (5%)
    Language                    : Spanish
    Service kind                : Complete Main
    Default                     : Yes
    Forced                      : No
    Statistics Tags Issue       : mkvmerge v10.0.0 ('To Drown In You') 64bit 2017-08-05 12:03:19 / mkvmerge v10.0.0 ('To Drown In You') 64bit 2017-08-05 12:03:19 / UTC 2017-08-05T04:26:43Z
    FromStats_BitRate           : 192000
    FromStats_Duration          : 02:01:11.840000000
    FromStats_FrameCount        : 227245
    FromStats_StreamSize        : 174524160

    Audio #2
    ID                          : 3
    Format                      : AC-3
    Format/Info                 : Audio Coding 3
    Format settings, Endianness : Big
    Codec ID                    : A_AC3
    Duration                    : 2 h 1 min
    Bit rate mode               : Constant
    Bit rate                    : 384 kb/s
    Channel(s)                  : 6 channels
    Channel positions           : Front: L C R, Side: L R, LFE
    Sampling rate               : 48.0 kHz
    Frame rate                  : 31.250 FPS (1536 spf)
    Bit depth                   : 16 bits
    Compression mode            : Lossy
    Delay relative to video     : -5 ms
    Stream size                 : 333 MiB (9%)
    Title                       : Surround
    Language                    : English
    Service kind                : Complete Main
    Default                     : No
    Forced                      : No
    Statistics Tags Issue       : mkvmerge v10.0.0 ('To Drown In You') 64bit 2017-08-05 12:03:19 / mkvmerge v10.0.0 ('To Drown In You') 64bit 2017-08-05 12:03:19 / UTC 2017-08-05T04:26:43Z
    FromStats_BitRate           : 384000
    FromStats_Duration          : 02:01:11.808000000
    FromStats_FrameCount        : 227244
    FromStats_StreamSize        : 349046784

    Text
    ID                          : 4
    Format                      : UTF-8
    Codec ID                    : S_TEXT/UTF8
    Codec ID/Info               : UTF-8 Plain Text
    Language                    : Spanish
    Default                     : Yes
    Forced                      : No
    Statistics Tags Issue       : mkvmerge v10.0.0 ('To Drown In You') 64bit 2017-08-05 12:03:19 / mkvmerge v10.0.0 ('To Drown In You') 64bit 2017-08-05 12:03:19 / UTC 2017-08-05T04:26:43Z
    FromStats_BitRate           : 89
    FromStats_Duration          : 01:59:55.480000000
    FromStats_FrameCount        : 1923
    FromStats_StreamSize        : 80094

  • Peso: 3.42 GB

Sinopsis

Mientras investiga el mundo furtivo del dopaje ilegal en los deportes, el director Bryan Fogel se conecta con el renegado científico ruso Dr. Grigory Rodchenkov, pilar del programa antidopaje de su país. Más de decenas de llamadas de Skype, muestras de orina y inyecciones de hormonas mal administradas, Fogel y Rodchenkov se acercan a pesar de las acusaciones chocantes que colocan a Rodchenkov en el centro del programa de dopaje olímpico patrocinado por Rusia.

Ficha técnica

  • Titulo original: Icarus
  • Fecha de lanzamiento: 26-07-2017 (United States of America)
  • Director: Bryan Fogel
  • Género: Documental
  • Puntuación: 5.0 1 votos
  • Duración:
    2h1m

Imágenes, Capturas de la película

Video trailer de la película

Enlaces de descarga

Descargar Icarus (2017) Webdl 1080p Latino
Descargar

dpeliculas

Aportes de DPeliculasHDmega la pass es:dpeliculashdmega.org Aportes de CinemaniaHD la pass es:cinemaniahdd.com
Guardado en : Documental

PelícuDelas relacionadas

  • Born in China (2016) 1080p Latino

    2017
    Born in China (2016) 1080p Latino

    4.0 1h 19m 2017

    Documental de la filial de Walt Disney Disneynature que recoge la vida salvaje y la belleza natural de...

    Director: Lu Chuan

    Género: Documental

    Actores: Zhou Xun

  • Chasing Coral (2017) Webdl 1080p Latino

    2017
    Chasing Coral (2017) Webdl 1080p Latino

    4.0 1h 24m 2017

    Los arrecifes de coral son el vivero para toda la vida en los océanos, un ecosistema notable que nos...

    Director: Jeff Orlowski

    Género: Documental

    Actores: Zackery Rago

  • McLaren (2017) 1080p Latino

    2017
    McLaren (2017) 1080p Latino

    0.0 0h 0m 2017

    La historia de Bruce McLaren, el neozelandes fundador del equipo McLaren Motor Racing team. Un hombre...

    Director: Roger Donaldson

    Género: Documental

    Actores: Matt Coldrick

  • Antes de la Inundación (2016) WEBDL 1080p Latino

    2016
    Antes de la Inundación (2016) WEBDL 1080p Latino

    3.0 1h 36m 2016

    Una mirada a los efectos del cambio climático en nuestro entorno y cómo la sociedad puede prevenirlos,...

    Director: Fisher Stevens

    Género: Documental

    Actores: Tommy E. Remengesau Jr.

Comentarios 2
  • Juan - 06 agosto, 2017

    Hola q pasa q no suben a uploaded.to?

    • dpelis

      Administrador
      - 09 agosto, 2017

      nadie descarga de ahi. y estar mantenendo premium requiere gasto