I Am a Hero (2015) Full 1080p Castellano

1.855 vistas
1 estrella2 estrellas3 estrellas4 estrellas5 estrellas (1 votos, promedio: 5,00 de 5)
Cargando…

Información de I Am a Hero (2015) Full 1080p Castellano

Datos de la película

  • Calidad: Full 1080p
  • Audio: Español Castellano DTS 5.1 BLURAY - Japones DTS 5.1 BLURAY
  • Subtitulos: Español Latino PGS
  • Resolución: 1920x1080p
  • Formato: MKV
  • Codec: H.264
  • Encoder: Dpelis
  • Mediainfo: Ver Ver
  • I.am.a.hero.2016.1080p.castellano.mkv
    Format                      : Matroska
    Format version              : Version 4 / Version 2
    File size                   : 4.38 GiB
    Duration                    : 2 h 6 min
    Overall bit rate            : 4 956 kb/s
    Movie name                  : DPeliculasHDMega.ORG
    Encoded date                : UTC 2017-05-14 14:03:56 / UTC 2017-05-14T10:54:36Z
    Writing application         : mkvmerge v10.0.0 ('To Drown In You') 64bit
    Writing library             : libebml v1.3.4 + libmatroska v1.4.5 / Lavf57.7.2

    Video
    ID                          : 1
    Format                      : AVC
    Format/Info                 : Advanced Video Codec
    Format profile              : [email protected]
    Format settings, CABAC      : Yes
    Format settings, ReFrames   : 4 frames
    Codec ID                    : V_MPEG4/ISO/AVC
    Duration                    : 2 h 6 min
    Bit rate                    : 3 321 kb/s
    Width                       : 1 920 pixels
    Height                      : 1 080 pixels
    Display aspect ratio        : 16:9
    Frame rate mode             : Constant
    Frame rate                  : 23.976 (24000/1001) FPS
    Color space                 : YUV
    Chroma subsampling          : 4:2:0
    Bit depth                   : 8 bits
    Scan type                   : Progressive
    Bits/(Pixel*Frame)          : 0.067
    Stream size                 : 2.94 GiB (67%)
    Writing library             : x264 core 148 r2708 86b7198
    Encoding settings           : cabac=1 / ref=4 / deblock=1:0:0 / analyse=0x3:0x133 / me=esa / subme=9 / psy=1 / psy_rd=1.00:0.00 / mixed_ref=1 / me_range=16 / chroma_me=1 / trellis=2 / 8x8dct=1 / cqm=0 / deadzone=21,11 / fast_pskip=1 / chroma_qp_offset=-2 / threads=12 / lookahead_threads=1 / sliced_threads=0 / nr=0 / decimate=1 / interlaced=0 / bluray_compat=0 / constrained_intra=0 / bframes=3 / b_pyramid=2 / b_adapt=2 / b_bias=0 / direct=3 / weightb=1 / open_gop=0 / weightp=2 / keyint=240 / keyint_min=24 / scenecut=40 / intra_refresh=0 / rc_lookahead=60 / rc=crf / mbtree=1 / crf=20.0 / qcomp=0.60 / qpmin=0 / qpmax=69 / qpstep=4 / vbv_maxrate=62500 / vbv_bufsize=78125 / crf_max=0.0 / nal_hrd=none / filler=0 / ip_ratio=1.40 / aq=1:1.00
    Default                     : Yes
    Forced                      : No
    Color range                 : Limited
    Color primaries             : BT.709
    Transfer characteristics    : BT.709
    Matrix coefficients         : BT.709
    Statistics Tags Issue       : mkvmerge v10.0.0 ('To Drown In You') 64bit 2017-05-14 14:03:56 / mkvmerge v10.0.0 ('To Drown In You') 64bit 2017-05-14 14:03:56 / UTC 2017-05-14T10:54:36Z
    FromStats_BitRate           : 3411435
    FromStats_Duration          : 02:06:37.632000000
    FromStats_FrameCount        : 182161
    FromStats_StreamSize        : 3239853610

    Audio #1
    ID                          : 2
    Format                      : DTS
    Format/Info                 : Digital Theater Systems
    Mode                        : 16
    Format settings, Endianness : Big
    Codec ID                    : A_DTS
    Duration                    : 2 h 6 min
    Bit rate mode               : Constant
    Bit rate                    : 768 kb/s
    Channel(s)                  : 6 channels
    Channel positions           : Front: L C R, Side: L R, LFE
    Sampling rate               : 48.0 kHz
    Frame rate                  : 93.750 FPS (512 spf)
    Bit depth                   : 24 bits
    Compression mode            : Lossy
    Stream size                 : 696 MiB (15%)
    Title                       : Surround
    Language                    : Spanish
    Default                     : Yes
    Forced                      : No
    Statistics Tags Issue       : mkvmerge v10.0.0 ('To Drown In You') 64bit 2017-05-14 14:03:56 / mkvmerge v10.0.0 ('To Drown In You') 64bit 2017-05-14 14:03:56 / UTC 2017-05-14T10:54:36Z
    FromStats_BitRate           : 767999
    FromStats_Duration          : 02:06:37.622000000
    FromStats_FrameCount        : 712277
    FromStats_StreamSize        : 729371648

    Audio #2
    ID                          : 3
    Format                      : DTS
    Format/Info                 : Digital Theater Systems
    Mode                        : 16
    Format settings, Endianness : Big
    Codec ID                    : A_DTS
    Duration                    : 2 h 6 min
    Bit rate mode               : Constant
    Bit rate                    : 768 kb/s
    Channel(s)                  : 6 channels
    Channel positions           : Front: L C R, Side: L R, LFE
    Sampling rate               : 48.0 kHz
    Frame rate                  : 93.750 FPS (512 spf)
    Bit depth                   : 16 bits
    Compression mode            : Lossy
    Stream size                 : 696 MiB (15%)
    Title                       : Surround
    Language                    : Japanese
    Default                     : No
    Forced                      : No
    Statistics Tags Issue       : mkvmerge v10.0.0 ('To Drown In You') 64bit 2017-05-14 14:03:56 / mkvmerge v10.0.0 ('To Drown In You') 64bit 2017-05-14 14:03:56 / UTC 2017-05-14T10:54:36Z
    FromStats_BitRate           : 767999
    FromStats_Duration          : 02:06:37.622000000
    FromStats_FrameCount        : 712277
    FromStats_StreamSize        : 729371648

    Text
    ID                          : 4
    Format                      : PGS
    Muxing mode                 : zlib
    Codec ID                    : S_HDMV/PGS
    Codec ID/Info               : Picture based subtitle format used on BDs/HD-DVDs
    Language                    : Spanish
    Default                     : No
    Forced                      : No
    Statistics Tags Issue       : mkvmerge v10.0.0 ('To Drown In You') 64bit 2017-05-14 14:03:56 / mkvmerge v10.0.0 ('To Drown In You') 64bit 2017-05-14 14:03:56 / UTC 2017-05-14T10:54:36Z
    FromStats_BitRate           : 5322
    FromStats_Duration          : 02:06:24.243000000
    FromStats_FrameCount        : 1740
    FromStats_StreamSize        : 5046232

    Menu
    00:00:00.000                : :Chapter 1
    00:12:17.737                : :Chapter 2
    00:21:02.511                : :Chapter 3
    00:35:06.438                : :Chapter 4
    00:44:59.405                : :Chapter 5
    00:59:43.413                : :Chapter 6
    01:11:53.559                : :Chapter 7
    01:22:41.165                : :Chapter 8
    01:29:31.533                : :Chapter 9
    01:44:07.199                : :Chapter 10

  • Peso: 4.38 GB

Sinopsis

Descargar I Am a Hero 1080p, Hideo es un diseñador con una vida desgraciada. Una tarde en casa es testigo de un accidente de tráfico en el que un coche funciona con un peatón matándolo instantáneamente. A pesar de las lesiones graves tales como fracturas del cuello, el cuerpo de la víctima.  Hideo preguntó si era otro de sus alucinaciones. Su novia, que persiguió después de unas horas se abalanza convertido en un zombis agresivos. Extraños sucesos comienzan a aparecer alrededor.

Ficha técnica

Imágenes, Capturas de la película

Video trailer de la película

Enlaces de descarga

Descargar I Am a Hero (2015) Full 1080p Castellano
Descargar

dpeliculas

Aportes de DPeliculasHDmega la pass es:dpeliculashdmega.org Aportes de CinemaniaHD la pass es:cinemaniahdd.com

PelícuDelas relacionadas

  • It – Eso (1990) WEBDL 1080p Latino

    1990
    It – Eso (1990) WEBDL 1080p Latino

    0.0 3h 7m 1990

    Descargar Stephen King's It  hd latino, tambien conocida como It o ESO Un tranquilo y pequeño pueblo...

    Director: Tommy Lee Wallace

    Género: Drama

    Actores: Tim Reid

  • The Recall (2017) 1080p Latino

    2017
    The Recall (2017) 1080p Latino

    0.0 1h 31m 2017

    The Recall Latino empieza como si de un slasher juvenil se tratase, con un grupo de amigos de vacaciones...

    Director: Mauro Borreli

    Género: Ciencia ficción

    Actores: Wesley Snipes

  • La momia (2017) Webdl 1080p Latino

    2017
    La momia (2017) Webdl 1080p Latino

    4.0 1h 50m 2017

    Descargar La momia 2017 1080p webdl  Latino, esta pelicula estara disponible con audio latino final...

    Director: Jo Beckett

    Género: Acción

    Actores: Vera Chok

Comentarios 14
  • Ian - 23 Junio, 2017

    disculpen no puedo ver los links, no me aparece ninguna publicidad, gracias por su trabajo.

    • dpelis

      Administrador
      - 23 Junio, 2017

      hola estimado. debe desactivar el adblock

      • Ian - 23 Junio, 2017

        hola, gracias por responder, pero esta desactivado y aun asi, no puedo acceder a los links.

        • dpelis

          Administrador
          - 23 Junio, 2017

          que navegador, recomiendo chrome. actualizado

      • Ian - 23 Junio, 2017

        disculpa, tengo desactivado el addblock y aun así no funcionan en publicidad me aparece un cuadro blanco con una etiqueta en la esquina derecha que dice bidvertiser, gracias por la ayuda.

        • dpelis

          Administrador
          - 23 Junio, 2017

          envieme capturas estimado. siempre cada error es mejor capturas

  • slash - 27 Mayo, 2017

    Genial la película, muchas gracias por poner películas que no hay en otros sitios, ojala sigas subiendo mas cine asiático.

  • Marco Antonio Caceres - 18 Mayo, 2017

    Muy buen aporte. Muchas gracias.

  • Pablo Alberto - 18 Mayo, 2017

    sabes donde puedo conseguir los subtitulos en srt? ya que mi tv no reproduce losque viene con la pelicula, gracias por la/s pelicula/s!!!

  • seba - 14 Mayo, 2017

    saldra en latino ??

    • dpelis

      Administrador
      - 14 Mayo, 2017

      supongo que si. no puedo darte una respuesta correcta

    • slash - 14 Mayo, 2017

      Todos esperamos que sí, pero te recomiendo que la escuches con su audio original (japonés), y lo mejor de todo es que esta en DTS que hace que la experiencia sea increíble.