Hide and Seek (2016) WEBDL 1080p Latino

1.090 vistas
1 estrella2 estrellas3 estrellas4 estrellas5 estrellas (Ninguna valoración todavía)
Cargando…

Información de Hide and Seek (2016) WEBDL 1080p Latino

Datos de la película

  • Calidad: WEBDL
  • Audio: Español Latino AC3 2.0 Netflix - Ingles AC3 5.1 Netflix
  • Subtitulos: Español Latino SRT - Ingles SRT
  • Resolución: 1920x804p
  • Formato: MKV
  • Codec: H.264
  • Encoder: Dpelis
  • Mediainfo: Ver Ver
  • Hide and Seek (2016) WEBDL 1080p Latino.mkv
    Format                      : Matroska
    Format version              : Version 4 / Version 2
    File size                   : 2.93 GiB
    Duration                    : 1 h 44 min
    Overall bit rate            : 4 022 kb/s
    Movie name                  : DPPeliculasHDMega.ORG
    Encoded date                : UTC 2017-08-20 19:24:34 / UTC 2017-08-20T17:26:17Z
    Writing application         : mkvmerge v10.0.0 ('To Drown In You') 64bit
    Writing library             : libebml v1.3.4 + libmatroska v1.4.5 / Lavf57.7.2

    Video
    ID                          : 1
    Format                      : AVC
    Format/Info                 : Advanced Video Codec
    Format profile              : [email protected]
    Format settings, CABAC      : Yes
    Format settings, ReFrames   : 4 frames
    Codec ID                    : V_MPEG4/ISO/AVC
    Duration                    : 1 h 44 min
    Bit rate                    : 3 500 kb/s
    Width                       : 1 920 pixels
    Height                      : 804 pixels
    Display aspect ratio        : 2.40:1
    Frame rate mode             : Constant
    Frame rate                  : 23.976 (24000/1001) FPS
    Color space                 : YUV
    Chroma subsampling          : 4:2:0
    Bit depth                   : 8 bits
    Scan type                   : Progressive
    Bits/(Pixel*Frame)          : 0.095
    Stream size                 : 2.50 GiB (85%)
    Writing library             : x264 core 148 r2708 86b7198
    Encoding settings           : cabac=1 / ref=3 / deblock=1:0:0 / analyse=0x3:0x113 / me=hex / subme=7 / psy=1 / psy_rd=1.00:0.00 / mixed_ref=1 / me_range=16 / chroma_me=1 / trellis=1 / 8x8dct=1 / cqm=0 / deadzone=21,11 / fast_pskip=1 / chroma_qp_offset=-2 / threads=25 / lookahead_threads=4 / sliced_threads=0 / nr=0 / decimate=1 / interlaced=0 / bluray_compat=0 / constrained_intra=0 / bframes=3 / b_pyramid=2 / b_adapt=1 / b_bias=0 / direct=1 / weightb=1 / open_gop=0 / weightp=2 / keyint=240 / keyint_min=24 / scenecut=40 / intra_refresh=0 / rc_lookahead=40 / rc=abr / mbtree=1 / bitrate=3500 / ratetol=1.0 / qcomp=0.60 / qpmin=0 / qpmax=69 / qpstep=4 / vbv_maxrate=62500 / vbv_bufsize=78125 / nal_hrd=none / filler=0 / ip_ratio=1.40 / aq=1:1.00
    Default                     : Yes
    Forced                      : No
    Color range                 : Limited
    Color primaries             : BT.709
    Transfer characteristics    : BT.709
    Matrix coefficients         : BT.709
    Statistics Tags Issue       : mkvmerge v10.0.0 ('To Drown In You') 64bit 2017-08-20 19:24:34 / mkvmerge v10.0.0 ('To Drown In You') 64bit 2017-08-20 19:24:34 / UTC 2017-08-20T17:26:17Z
    FromStats_BitRate           : 3508474
    FromStats_Duration          : 01:44:18.336000000
    FromStats_FrameCount        : 150050
    FromStats_StreamSize        : 2744651174

    Audio #1
    ID                          : 2
    Format                      : E-AC-3
    Format/Info                 : Enhanced Audio Coding 3
    Format settings, Endianness : Big
    Codec ID                    : A_EAC3
    Duration                    : 1 h 44 min
    Bit rate mode               : Constant
    Bit rate                    : 128 kb/s
    Channel(s)                  : 2 channels
    Channel positions           : Front: L R
    Sampling rate               : 48.0 kHz
    Frame rate                  : 187.500 FPS (256 spf)
    Compression mode            : Lossy
    Stream size                 : 95.5 MiB (3%)
    Language                    : Spanish
    Service kind                : Complete Main
    Default                     : Yes
    Forced                      : No
    Statistics Tags Issue       : mkvmerge v10.0.0 ('To Drown In You') 64bit 2017-08-20 19:24:34 / mkvmerge v10.0.0 ('To Drown In You') 64bit 2017-08-20 19:24:34 / UTC 2017-08-20T17:26:17Z
    FromStats_BitRate           : 128000
    FromStats_Duration          : 01:44:19.104000000
    FromStats_FrameCount        : 195597
    FromStats_StreamSize        : 100145664

    Audio #2
    ID                          : 3
    Format                      : AC-3
    Format/Info                 : Audio Coding 3
    Format settings, Endianness : Big
    Codec ID                    : A_AC3
    Duration                    : 1 h 44 min
    Bit rate mode               : Constant
    Bit rate                    : 384 kb/s
    Channel(s)                  : 6 channels
    Channel positions           : Front: L C R, Side: L R, LFE
    Sampling rate               : 48.0 kHz
    Frame rate                  : 31.250 FPS (1536 spf)
    Bit depth                   : 16 bits
    Compression mode            : Lossy
    Stream size                 : 287 MiB (10%)
    Title                       : Surround
    Language                    : Chinese
    Service kind                : Complete Main
    Default                     : No
    Forced                      : No
    Statistics Tags Issue       : mkvmerge v10.0.0 ('To Drown In You') 64bit 2017-08-20 19:24:34 / mkvmerge v10.0.0 ('To Drown In You') 64bit 2017-08-20 19:24:34 / UTC 2017-08-20T17:26:17Z
    FromStats_BitRate           : 384000
    FromStats_Duration          : 01:44:19.232000000
    FromStats_FrameCount        : 195601
    FromStats_StreamSize        : 300443136

    Text #1
    ID                          : 4
    Format                      : ASS
    Codec ID                    : S_TEXT/ASS
    Codec ID/Info               : Advanced Sub Station Alpha
    Compression mode            : Lossless
    Language                    : Spanish
    Default                     : No
    Forced                      : No
    Statistics Tags Issue       : mkvmerge v10.0.0 ('To Drown In You') 64bit 2017-08-20 19:24:34 / mkvmerge v10.0.0 ('To Drown In You') 64bit 2017-08-20 19:24:34 / UTC 2017-08-20T17:26:17Z
    FromStats_BitRate           : 51
    FromStats_Duration          : 01:39:06.020000000
    FromStats_FrameCount        : 685
    FromStats_StreamSize        : 38593

    Text #2
    ID                          : 5
    Format                      : ASS
    Codec ID                    : S_TEXT/ASS
    Codec ID/Info               : Advanced Sub Station Alpha
    Compression mode            : Lossless
    Language                    : English
    Default                     : No
    Forced                      : No
    Statistics Tags Issue       : mkvmerge v10.0.0 ('To Drown In You') 64bit 2017-08-20 19:24:34 / mkvmerge v10.0.0 ('To Drown In You') 64bit 2017-08-20 19:24:34 / UTC 2017-08-20T17:26:17Z
    FromStats_BitRate           : 54
    FromStats_Duration          : 01:39:06.480000000
    FromStats_FrameCount        : 854
    FromStats_StreamSize        : 40419

  • Peso: 2.93 GB

Sinopsis

Un hombre vive en un hermoso apartamento con su esposa y 2 hijos. Está obsesionado con la limpieza, tiene sueños extraños y lucha con un misterio en su pasado. Él va a una parte mala de la caza de la ciudad para un hermano perdido largo, dejando a su esposa y niños en su coche. Mientras trata de conseguir la cooperación de los vecinos, la esposa encuentra que sus hijos están desaparecidos. Un extraño que lleva un casco oscuro de la motocicleta aparece, asustándola. A medida que la historia se desarrolla, este desconocido los sigue haciéndose cada vez más amenazantes.

Ficha técnica

  • Titulo original: Hide and Seek
  • Fecha de lanzamiento: 04-11-2016
  • Director: Liu Jie
  • Género: Misterio, Suspense
  • Puntuación: 0.0 0 votos
  • Duración:
    1h 41m

Imágenes, Capturas de la película

Video trailer de la película

Enlaces de descarga

Descargar Hide and Seek (2016) WEBDL 1080p Latino
Descargar

dpeliculas

Aportes de DPeliculasHDmega la pass es:dpeliculashdmega.org Aportes de CinemaniaHD la pass es:cinemaniahdd.com
Guardado en : Misterio , Suspense

PelícuDelas relacionadas

  • La momia (2017) 3D OU 1080p Latino

    2017
    La momia (2017) 3D OU 1080p Latino

    0.0 1h 50m 2017

    Descargar gratis La momia (2017) 3D OU 1080p Latino. A pesar de estar enterrada en una tumba en lo más...

    Director: Jo Beckett

    Género: 3D Half OU

    Actores: Vera Chok

  • Tunnel (2016) 1080p Latino

    2016
    Tunnel (2016) 1080p Latino

    0.0 2h 6m 2016

    Jung-soo se dirige a casa con satisfacción, tras una provechosa jornada de trabajo. Sin embargo, el...

    Director: Kim Seong-hoon

    Género: Drama

    Actores: Park Hyuk-kwon

  • El silencio de los corderos (1991) Full 1080p Latino

    1991
    El silencio de los corderos (1991) Full 1080p Latino

    5.0 1h 58m 1991

    El FBI busca a "Buffalo Bill", un asesino en serie que mata a sus víctimas, todas adolescentes, después...

    Director: Ronald M. Bozman

    Género: Crimen

    Actores: Tracey Walter

Comentarios 4
  • NOSFUIMOS - 24 agosto, 2017

    la mayoria de peliculas stan en calidad WEBDL. STA PELICULA LA SUBIRAN EN PORTADA GRISS?

    • dpelis

      Administrador
      - 25 agosto, 2017

      es pelicula de netflix. no habra portada gris

  • Johanna Carmona - 21 agosto, 2017

    Tengo rato intentandola bajar no se puede maldito acotador me manda a 404 NOT FOUND