Heidi (2015) Full 1080p Latino

818 vistas
1 estrella2 estrellas3 estrellas4 estrellas5 estrellas (7 votos, promedio: 4,14 de 5)
Cargando…

Información de Heidi (2015) Full 1080p Latino

Datos de la película

  • Calidad: Full 1080p
  • Audio: Se especifica abajo de la Sinopsis
  • Subtitulos: Español Latino SRT - Ingles SRT
  • Resolución: 1920x1080p
  • Formato: MKV
  • Codec: H.264
  • Encoder: Dpelis
  • Mediainfo: Ver Ver
  • Heidi 2015 Full 1080p Latino.mkv
    Format                      : Matroska
    Format version              : Version 4 / Version 2
    File size                   : 6.80 GiB
    Duration                    : 1 h 50 min
    Overall bit rate            : 8 786 kb/s
    Movie name                  : DPeliculasHDMega.ORG
    Encoded date                : UTC 2017-06-18 18:15:23 / UTC 2017-06-12T09:44:31Z
    Writing application         : mkvmerge v10.0.0 ('To Drown In You') 64bit
    Writing library             : libebml v1.3.4 + libmatroska v1.4.5 / Lavf57.7.2

    Video
    ID                          : 1
    Format                      : AVC
    Format/Info                 : Advanced Video Codec
    Format profile              : [email protected]
    Format settings, CABAC      : Yes
    Format settings, ReFrames   : 4 frames
    Codec ID                    : V_MPEG4/ISO/AVC
    Duration                    : 1 h 50 min
    Bit rate                    : 6 718 kb/s
    Width                       : 1 920 pixels
    Height                      : 1 080 pixels
    Display aspect ratio        : 16:9
    Frame rate mode             : Constant
    Frame rate                  : 24.000 FPS
    Color space                 : YUV
    Chroma subsampling          : 4:2:0
    Bit depth                   : 8 bits
    Scan type                   : Progressive
    Bits/(Pixel*Frame)          : 0.135
    Stream size                 : 5.20 GiB (76%)
    Writing library             : x264 core 148 r2708 86b7198
    Encoding settings           : cabac=1 / ref=4 / deblock=1:0:0 / analyse=0x3:0x133 / me=esa / subme=10 / psy=1 / psy_rd=1.00:0.00 / mixed_ref=1 / me_range=24 / chroma_me=1 / trellis=2 / 8x8dct=1 / cqm=0 / deadzone=21,11 / fast_pskip=1 / chroma_qp_offset=-2 / threads=12 / lookahead_threads=2 / sliced_threads=0 / nr=0 / decimate=1 / interlaced=0 / bluray_compat=0 / constrained_intra=0 / bframes=8 / b_pyramid=2 / b_adapt=2 / b_bias=0 / direct=3 / weightb=1 / open_gop=0 / weightp=2 / keyint=240 / keyint_min=24 / scenecut=40 / intra_refresh=0 / rc_lookahead=60 / rc=crf / mbtree=1 / crf=20.0 / qcomp=0.60 / qpmin=0 / qpmax=69 / qpstep=4 / vbv_maxrate=62500 / vbv_bufsize=78125 / crf_max=0.0 / nal_hrd=none / filler=0 / ip_ratio=1.40 / aq=1:1.00
    Default                     : Yes
    Forced                      : No
    Color range                 : Limited
    Color primaries             : BT.709
    Transfer characteristics    : BT.709
    Matrix coefficients         : BT.709
    Statistics Tags Issue       : mkvmerge v10.0.0 ('To Drown In You') 64bit 2017-06-18 18:15:23 / mkvmerge v10.0.0 ('To Drown In You') 64bit 2017-06-18 18:15:23 / UTC 2017-06-12T09:44:31Z
    FromStats_BitRate           : 6885920
    FromStats_Duration          : 01:50:50.292000000
    FromStats_FrameCount        : 159607
    FromStats_StreamSize        : 5724172494

    Audio #1
    ID                          : 2
    Format                      : AC-3
    Format/Info                 : Audio Coding 3
    Format settings, Endianness : Big
    Codec ID                    : A_AC3
    Duration                    : 1 h 50 min
    Bit rate mode               : Constant
    Bit rate                    : 384 kb/s
    Channel(s)                  : 6 channels
    Channel positions           : Front: L C R, Side: L R, LFE
    Sampling rate               : 48.0 kHz
    Frame rate                  : 31.250 FPS (1536 spf)
    Bit depth                   : 16 bits
    Compression mode            : Lossy
    Delay relative to video     : -5 ms
    Stream size                 : 304 MiB (4%)
    Title                       : Surround
    Language                    : Spanish
    Service kind                : Complete Main
    Default                     : Yes
    Forced                      : No
    Statistics Tags Issue       : mkvmerge v10.0.0 ('To Drown In You') 64bit 2017-06-18 18:15:23 / mkvmerge v10.0.0 ('To Drown In You') 64bit 2017-06-18 18:15:23 / UTC 2017-06-12T09:44:31Z
    FromStats_BitRate           : 384000
    FromStats_Duration          : 01:50:50.112000000
    FromStats_FrameCount        : 207816
    FromStats_StreamSize        : 319205376

    Audio #2
    ID                          : 3
    Format                      : DTS
    Format/Info                 : Digital Theater Systems
    Mode                        : 16
    Format settings, Endianness : Big
    Codec ID                    : A_DTS
    Duration                    : 1 h 50 min
    Bit rate mode               : Constant
    Bit rate                    : 1 509 kb/s
    Channel(s)                  : 6 channels
    Channel positions           : Front: L C R, Side: L R, LFE
    Sampling rate               : 48.0 kHz
    Frame rate                  : 93.750 FPS (512 spf)
    Bit depth                   : 16 bits
    Compression mode            : Lossy
    Stream size                 : 1.17 GiB (17%)
    Title                       : Surround
    Language                    : German
    Default                     : No
    Forced                      : No
    Statistics Tags Issue       : mkvmerge v10.0.0 ('To Drown In You') 64bit 2017-06-18 18:15:23 / mkvmerge v10.0.0 ('To Drown In You') 64bit 2017-06-18 18:15:23 / UTC 2017-06-12T09:44:31Z
    FromStats_BitRate           : 1508999
    FromStats_Duration          : 01:50:50.283000000
    FromStats_FrameCount        : 623464
    FromStats_StreamSize        : 1254409568

    Text #1
    ID                          : 4
    Format                      : PGS
    Muxing mode                 : zlib
    Codec ID                    : S_HDMV/PGS
    Codec ID/Info               : Picture based subtitle format used on BDs/HD-DVDs
    Language                    : Spanish
    Default                     : No
    Forced                      : No
    Statistics Tags Issue       : mkvmerge v10.0.0 ('To Drown In You') 64bit 2017-06-18 18:15:23 / mkvmerge v10.0.0 ('To Drown In You') 64bit 2017-06-18 18:15:23 / UTC 2017-06-12T09:44:31Z
    FromStats_BitRate           : 4164
    FromStats_Duration          : 01:43:21.833000000
    FromStats_FrameCount        : 2012
    FromStats_StreamSize        : 3228282

    Text #2
    ID                          : 5
    Format                      : UTF-8
    Codec ID                    : S_TEXT/UTF8
    Codec ID/Info               : UTF-8 Plain Text
    Language                    : Spanish
    Default                     : Yes
    Forced                      : No
    Statistics Tags Issue       : mkvmerge v10.0.0 ('To Drown In You') 64bit 2017-06-18 18:15:23 / mkvmerge v10.0.0 ('To Drown In You') 64bit 2017-06-18 18:15:23 / UTC 2017-06-12T09:44:31Z
    FromStats_BitRate           : 33
    FromStats_Duration          : 01:42:04.374000000
    FromStats_FrameCount        : 918
    FromStats_StreamSize        : 25399

    Text #3
    ID                          : 6
    Format                      : UTF-8
    Codec ID                    : S_TEXT/UTF8
    Codec ID/Info               : UTF-8 Plain Text
    Language                    : English
    Default                     : No
    Forced                      : No
    Statistics Tags Issue       : mkvmerge v10.0.0 ('To Drown In You') 64bit 2017-06-18 18:15:23 / mkvmerge v10.0.0 ('To Drown In You') 64bit 2017-06-18 18:15:23 / UTC 2017-06-12T09:44:31Z
    FromStats_BitRate           : 32
    FromStats_Duration          : 01:42:04.374000000
    FromStats_FrameCount        : 918
    FromStats_StreamSize        : 24896

    Menu
    00:00:00.000                : :Chapter 1
    00:09:16.125                : :Chapter 2
    00:19:48.083                : :Chapter 3
    00:28:50.458                : :Chapter 4
    00:42:06.375                : :Chapter 5
    00:51:45.917                : :Chapter 6
    00:59:43.375                : :Chapter 7
    01:11:45.500                : :Chapter 8
    01:22:32.167                : :Chapter 9
    01:34:27.375                : :Chapter 10

  • Peso: 6.80 GB

Sinopsis

Heidi es una huérfana de ocho años que se ha criado en las montañas suizas junto a su abuelo. Pero un día su tía decide ir a buscarla y llevársela de nuevo a la ciudad, para poder educarla en la casa de una rica familia en Frankfurt. Allí la joven conocerá a Clara, una niña con discapacidad que se mueve en silla de ruedas y con quien conectará. Sin embargo, a pesar de su amistad con ella, Heidi querrá volver a las montañas con su abuelo, a quien extraña cada día.

Alain Gsponer (Las aventuras del pequeño fantasma) dirige esta adaptación escrita por Petra Biondina Volpe (Lovely Louise) de la novela de Johanna Spyri. Anuk Steffen da vida a Heidi, encabezando un reparto en el que también encontramos a Bruno Ganz (Remember), Katharina Schüttler (13 minutos para matar a Hitler), Anna Schinz (Goliath), Quirin Agrippi e Isabelle Ottmann.

 

Español Latino AC3 5.1 DVD – German DTS 5.1 Bluray

Ficha técnica

Imágenes, Capturas de la película

Video trailer de la película

Enlaces de descarga

Descargar Heidi (2015) Full 1080p Latino
Descargar

dpeliculas

Aportes de DPeliculasHDmega la pass es:dpeliculashdmega.org Aportes de CinemaniaHD la pass es:cinemaniahdd.com

PelícuDelas relacionadas

  • El fugitivo (1993) Full 1080p Latino

    1993
    El fugitivo (1993) Full 1080p Latino

    5.0 2h 13m 1993

    El doctor Richard Kimble es un prestigioso cirujano de Chicago con una vida prácticamente perfecta:...

    Director: Andrew Davis

    Género: Acción

    Actores: Turk Muller

  • Dragon Ball Super (2015) Full 1080p Latino

    2015
    Dragon Ball Super (2015) Full 1080p Latino

    4.1 0h 24m 2015

    Si eres un seguidor de la serie Dragon ball super latino, entonces ahora puedes disfrutar de esta maravillosa...

    Director: Akira Toriyama

    Género: Anime

    Actores: Naoki Tatsuta

Comentarios 2
  • pedro rivera - 29 junio, 2017

    hola , muy buena pagina , saludos , hay series no veo categorias de peliculas.

    • dpelis

      Administrador
      - 29 junio, 2017

      categoria peliculas no hay, solo series