Hasta los huesos (2017) Webdl 1080p Latino

1.273 vistas
1 estrella2 estrellas3 estrellas4 estrellas5 estrellas (Ninguna valoración todavía)
Cargando…

Información de Hasta los huesos (2017) Webdl 1080p Latino

Datos de la película

  • Calidad: WEBDL
  • Audio: Se especifica abajo de la Sinopsis
  • Subtitulos: Español Latino SRT - Ingles SRT
  • Resolución: 1920x1036p
  • Formato: MKV
  • Codec: H.264
  • Encoder: Dpelis
  • Mediainfo: Ver Ver
  • To The Bone Latino (2017) webdl latino.mkv
    Format                      : Matroska
    Format version              : Version 4 / Version 2
    File size                   : 3.21 GiB
    Duration                    : 1 h 47 min
    Overall bit rate            : 4 266 kb/s
    Encoded date                : UTC 2017-07-14 14:28:55 / UTC 2017-07-14T13:48:09Z
    Writing application         : mkvmerge v10.0.0 ('To Drown In You') 64bit
    Writing library             : libebml v1.3.4 + libmatroska v1.4.5 / Lavf57.7.2

    Video
    ID                          : 1
    Format                      : AVC
    Format/Info                 : Advanced Video Codec
    Format profile              : [email protected]
    Format settings, CABAC      : Yes
    Format settings, ReFrames   : 4 frames
    Codec ID                    : V_MPEG4/ISO/AVC
    Duration                    : 1 h 47 min
    Bit rate                    : 3 500 kb/s
    Width                       : 1 920 pixels
    Height                      : 1 036 pixels
    Display aspect ratio        : 1.85:1
    Frame rate mode             : Constant
    Frame rate                  : 23.976 (24000/1001) FPS
    Color space                 : YUV
    Chroma subsampling          : 4:2:0
    Bit depth                   : 8 bits
    Scan type                   : Progressive
    Bits/(Pixel*Frame)          : 0.073
    Stream size                 : 2.52 GiB (79%)
    Writing library             : x264 core 148 r2708 86b7198
    Encoding settings           : cabac=1 / ref=3 / deblock=1:0:0 / analyse=0x3:0x113 / me=hex / subme=7 / psy=1 / psy_rd=1.00:0.00 / mixed_ref=1 / me_range=16 / chroma_me=1 / trellis=1 / 8x8dct=1 / cqm=0 / deadzone=21,11 / fast_pskip=1 / chroma_qp_offset=-2 / threads=32 / lookahead_threads=5 / sliced_threads=0 / nr=0 / decimate=1 / interlaced=0 / bluray_compat=0 / constrained_intra=0 / bframes=3 / b_pyramid=2 / b_adapt=1 / b_bias=0 / direct=1 / weightb=1 / open_gop=0 / weightp=2 / keyint=240 / keyint_min=24 / scenecut=40 / intra_refresh=0 / rc_lookahead=40 / rc=abr / mbtree=1 / bitrate=3500 / ratetol=1.0 / qcomp=0.60 / qpmin=0 / qpmax=69 / qpstep=4 / vbv_maxrate=62500 / vbv_bufsize=78125 / nal_hrd=none / filler=0 / ip_ratio=1.40 / aq=1:1.00
    Default                     : Yes
    Forced                      : No
    Color range                 : Limited
    Color primaries             : BT.709
    Transfer characteristics    : BT.709
    Matrix coefficients         : BT.709
    Statistics Tags Issue       : mkvmerge v10.0.0 ('To Drown In You') 64bit 2017-07-14 14:28:55 / mkvmerge v10.0.0 ('To Drown In You') 64bit 2017-07-14 14:28:55 / UTC 2017-07-14T13:48:09Z
    FromStats_BitRate           : 3431442
    FromStats_Duration          : 01:47:46.585000000
    FromStats_FrameCount        : 155043
    FromStats_StreamSize        : 2773714577

    Audio #1
    ID                          : 2
    Format                      : AC-3
    Format/Info                 : Audio Coding 3
    Format settings, Endianness : Big
    Codec ID                    : A_AC3
    Duration                    : 1 h 47 min
    Bit rate mode               : Constant
    Bit rate                    : 384 kb/s
    Channel(s)                  : 6 channels
    Channel positions           : Front: L C R, Side: L R, LFE
    Sampling rate               : 48.0 kHz
    Frame rate                  : 31.250 FPS (1536 spf)
    Bit depth                   : 16 bits
    Compression mode            : Lossy
    Stream size                 : 345 MiB (11%)
    Language                    : Spanish
    Service kind                : Complete Main
    Default                     : Yes
    Forced                      : No
    Statistics Tags Issue       : mkvmerge v10.0.0 ('To Drown In You') 64bit 2017-07-14 14:28:55 / mkvmerge v10.0.0 ('To Drown In You') 64bit 2017-07-14 14:28:55 / UTC 2017-07-14T13:48:09Z
    FromStats_BitRate           : 448000
    FromStats_Duration          : 01:47:46.976000000
    FromStats_FrameCount        : 202093
    FromStats_StreamSize        : 362150656

    Audio #2
    ID                          : 3
    Format                      : AC-3
    Format/Info                 : Audio Coding 3
    Format settings, Endianness : Big
    Codec ID                    : A_AC3
    Duration                    : 1 h 47 min
    Bit rate mode               : Constant
    Bit rate                    : 384 kb/s
    Channel(s)                  : 6 channels
    Channel positions           : Front: L C R, Side: L R, LFE
    Sampling rate               : 48.0 kHz
    Frame rate                  : 31.250 FPS (1536 spf)
    Bit depth                   : 16 bits
    Compression mode            : Lossy
    Stream size                 : 296 MiB (9%)
    Title                       : Surround
    Language                    : English
    Service kind                : Complete Main
    Default                     : No
    Forced                      : No
    Statistics Tags Issue       : mkvmerge v10.0.0 ('To Drown In You') 64bit 2017-07-14 14:28:55 / mkvmerge v10.0.0 ('To Drown In You') 64bit 2017-07-14 14:28:55 / UTC 2017-07-14T13:48:09Z
    FromStats_BitRate           : 384000
    FromStats_Duration          : 01:47:46.976000000
    FromStats_FrameCount        : 202093
    FromStats_StreamSize        : 310414848

    Text #1
    ID                          : 4
    Format                      : UTF-8
    Codec ID                    : S_TEXT/UTF8
    Codec ID/Info               : UTF-8 Plain Text
    Language                    : Spanish
    Default                     : No
    Forced                      : No
    Statistics Tags Issue       : mkvmerge v10.0.0 ('To Drown In You') 64bit 2017-07-14 14:28:55 / mkvmerge v10.0.0 ('To Drown In You') 64bit 2017-07-14 14:28:55 / UTC 2017-07-14T13:48:09Z
    FromStats_BitRate           : 52
    FromStats_Duration          : 01:47:11.508000000
    FromStats_FrameCount        : 1211
    FromStats_StreamSize        : 42212

    Text #2
    ID                          : 5
    Format                      : UTF-8
    Codec ID                    : S_TEXT/UTF8
    Codec ID/Info               : UTF-8 Plain Text
    Title                       : FORZADOS
    Language                    : Spanish
    Default                     : Yes
    Forced                      : No
    Statistics Tags Issue       : mkvmerge v10.0.0 ('To Drown In You') 64bit 2017-07-14 14:28:55 / mkvmerge v10.0.0 ('To Drown In You') 64bit 2017-07-14 14:28:55 / UTC 2017-07-14T13:48:09Z
    FromStats_BitRate           : 0
    FromStats_Duration          : 01:47:11.967000000
    FromStats_FrameCount        : 17
    FromStats_StreamSize        : 564

    Text #3
    ID                          : 6
    Format                      : UTF-8
    Codec ID                    : S_TEXT/UTF8
    Codec ID/Info               : UTF-8 Plain Text
    Language                    : English
    Default                     : No
    Forced                      : No
    Statistics Tags Issue       : mkvmerge v10.0.0 ('To Drown In You') 64bit 2017-07-14 14:28:55 / mkvmerge v10.0.0 ('To Drown In You') 64bit 2017-07-14 14:28:55 / UTC 2017-07-14T13:48:09Z
    FromStats_BitRate           : 68
    FromStats_Duration          : 01:40:33.444000000
    FromStats_FrameCount        : 1430
    FromStats_StreamSize        : 51539

  • Peso: 3.21 GB

Sinopsis

Una joven anoréxica (Lily Collins) empieza un tratamiento poco convencional en un centro donde crea lazos con otros internos que también sufren trastornos alimentarios.

 

Español Latino AC3 5.1  Ingles AC3 5.1

Ficha técnica

  • Titulo original: To the Bone
  • Fecha de lanzamiento: 22-01-2017 (United States of America)
  • Director: Marti Noxon
  • Género: Drama
  • Puntuación: 0.0 0 votos
  • Duración:
    1h 47m

Imágenes, Capturas de la película

Video trailer de la película

Enlaces de descarga

Descargar Hasta los huesos (2017) Webdl 1080p Latino
Descargar

dpeliculas

Aportes de DPeliculasHDmega la pass es:dpeliculashdmega.org Aportes de CinemaniaHD la pass es:cinemaniahdd.com
Guardado en : Drama

PelícuDelas relacionadas

  • La vida de Pi (2012) 2160p 4K UHD Latino-Ingles

    2012
    La vida de Pi (2012) 2160p 4K UHD Latino-Ingles

    0.0 2h 7m 2012

    Descargar gratis La vida de Pi (2012) 2160p 4K UHD Latino-Ingles.  Pi Patel es un muchacho cuyo padre...

    Director: Ang Lee

    Género: 4K HDR

    Actores: Wang Bo-Chieh

  • Arrow (2017) Temporada 6 WEBDL 1080p Subtitulada

    2012
    Arrow (2017) Temporada 6 WEBDL 1080p Subtitulada

    0.0 0h 42m 2012

    Con el futuro del equipo pendiendo de un hilo, Arrow le dio una nueva definición a la frase “explotar...

    Director: Marc Guggenheim

    Género: Acción

    Actores: Willa Holland

  • La guerra del planeta de los simios (2017) 1080p Latino

    2017
    La guerra del planeta de los simios (2017) 1080p Latino

    5.0 2h 20m 2017

    En War for the Planet of the Apes, el tercer capítulo de la exitosa franquicia aclamada por la crítica,...

    Director: Matt Reeves

    Género: Ciencia ficción

    Actores: Woody Harrelson

  • En este rincón del mundo (2016) 1080p Latino

    2016
    En este rincón del mundo (2016) 1080p Latino

    0.0 2h 10m 2016

    La historia narra la vida de una familia residente en la ciudad de Kure (Hiroshima) durante la II Guerra...

    Director: Sunao Katabuchi

    Género: Animación

    Actores: Yoshimasa Hosoya

Comentarios 0